<?xml version="1.0" standalone="no"?>
<!DOCTYPE svg PUBLIC "-//W3C//DTD SVG 1.1//EN" "http://www.w3.org/Graphics/SVG/1.1/DTD/svg11.dtd" >
<!--
2013-9-30: Created.
-->
<svg>
<metadata>
Created by iconfont
</metadata>
<defs>

<font id="iconfont" horiz-adv-x="1024" >
  <font-face
    font-family="iconfont"
    font-weight="500"
    font-stretch="normal"
    units-per-em="1024"
    ascent="896"
    descent="-128"
  />
    <missing-glyph />
    
    <glyph glyph-name="circle" unicode="&#58933;" d="M511.29341623 752.73874539c203.24139011 0 367.99927762-164.75788751 367.99927762-367.99759176 0-203.24139011-164.75788751-367.99927762-367.99927762-367.99927763-203.23970344 0-367.99927762 164.75788751-367.99927761 367.99927763C143.29413862 587.9808570600001 308.0537128 752.73874539 511.29341623 752.73874539z"  horiz-adv-x="1024" />

    
    <glyph glyph-name="htmal5icon24" unicode="&#58940;" d="M892.38645 478.768387c-3.651157 11.266601-13.45136 19.506263-25.186635 21.223371l-229.084489 33.269731-102.46365 207.580732c-10.517541 21.317515-45.441958 21.317515-55.960523 0l-102.46365-207.580732-229.084489-33.269731c-11.735275-1.717108-21.503756-9.925047-25.186635-21.223371-3.651157-11.329023-0.624217-23.720238 7.895831-31.990598l165.78993-161.607678-39.138392-228.148164c-1.997494-11.703553 2.808976-23.563672 12.390191-30.524201 9.643638-7.021927 22.37766-7.927553 32.895201-2.372024l204.895577 107.738793 204.864878-107.707071c4.556783-2.403746 9.582239-3.589758 14.544251-3.589758 6.460132 0 12.889565 1.997494 18.351973 5.961782 9.612938 6.959505 14.419408 18.819624 12.390191 30.524201l-39.137369 228.148164 165.78993 161.607678C893.01169 455.079872 896.03863 467.439364 892.38645 478.768387z"  horiz-adv-x="1024" />

    
    <glyph glyph-name="chrome" unicode="&#58981;" d="M328.28574361 431.38845269l-106.13159645 183.80694773c67.94275954 85.04431361 172.49860305 139.5931738 289.84585284 139.5931738 135.74648278 0 254.39141076-72.94809244 318.99728242-181.76773804l-302.5445678 0c-5.42244397 0.46345675-10.9375793 0.7415308-16.49906029 0.74153079-88.24216519 0-162.62697427-60.57379722-183.71425641-142.32756862zM644.7340139 519.39889021l212.49492055 0c16.45271462-41.94283587 25.53646691-87.63967141 25.53646693-135.42206304 0-203.36482259-163.73927047-368.44811763-366.54794495-370.71905571l151.64304929 262.64094091c21.36535617 30.68083685 33.87868841 67.94275954 33.87868842 108.07811479 0 52.97310652-21.82881293 100.94088086-57.00518024 135.42206305zM377.31946775 383.97682715999997c0 74.29211701 60.43476019 134.68053225 134.68053225 134.68053225s134.68053225-60.43476019 134.68053225-134.68053224c0-74.24577134-60.43476019-134.68053225-134.68053225-134.68053225s-134.68053225 60.43476019-134.68053225 134.68053225zM562.84120547 201.18948428l-106.13159645-183.85329343c-178.52354079 26.69510879-315.42866544 180.70178752-315.42866545 366.64063631 0 66.04258687 17.28693677 128.05310073 47.55066255 181.76773804l151.36497524-262.17748415c30.31007144-64.51317959 95.93554796-109.32944802 171.80341791-109.32944802 17.6113565 0 34.62021922 2.4099751 50.84120547 6.90550557z"  horiz-adv-x="1024" />

    
    <glyph glyph-name="coding" unicode="&#58926;" d="M863.06066843 441.65492595c8.82723423 0 17.1004996-1.93678033 24.82148364-5.79685089s14.34752216-9.10379636 19.86696799-15.71768728c5.50679782-6.61389093 9.64427344-14.33403122 12.41074182-23.16126544 2.75382037-8.82723423 4.13663269-18.20759272 4.13663269-28.14107631 0-11.04057668-1.38365525-20.96057017-4.13663269-29.78780355-2.76646838-8.82723423-6.903944-16.56086545-12.41074182-23.17391345-5.52028876-6.62653811-12.14682687-11.87026475-19.86696799-15.73033448s-15.99424942-5.78335996-24.82148364-5.78335995c-4.42668658 0-9.11644436 0.81704004-14.07096003 2.47725823-4.96716367 1.6602182-9.65692146 3.58350759-14.07096002 5.7968509 0-32.00114685-8.55067127-61.51238827-25.65117086-88.54721521s-40.55181812-49.93217743-70.3396225-68.6794043c-28.69420139-18.7607178-62.34291925-33.38480292-100.95711328-43.87141159-38.62768579-10.48745159-79.99654394-15.71768728-124.13186967-15.71768729-44.13532654 0-85.51683188 5.23023487-124.13186965 15.71768729-38.62768579 10.48745159-72.27640283 25.11069379-100.95711328 43.87141159-29.8012945 18.74722687-53.2391229 41.64542029-70.3396225 68.6794043s-25.65117087 56.54522461-25.65117087 88.54721521c-4.42668658-2.21334329-9.11644436-4.13663269-14.07011709-5.7968509-4.96716367-1.6602182-9.65692146-2.47725824-14.07096003-2.47725823-8.82723423 0-17.11399055 1.9232894-24.83413083 5.78335995s-14.34752216 9.10379636-19.85431998 15.73033448c-5.52028876 6.61389093-9.65692146 14.34752216-12.41074182 23.17391345-2.76646838 8.82723423-4.13663269 18.74722687-4.13663269 29.78780355 0 9.93348359 1.37016513 19.31384289 4.13663269 28.1410763 2.75382037 8.82723423 6.89045306 16.54737451 12.41074182 23.16126545 5.50679782 6.61389093 12.13417969 11.8567738 19.85431998 15.71768728s16.00689743 5.79685089 24.83413083 5.79685089c4.41319565 0 9.38035849-0.82968723 14.90064725-2.47725824 5.50679782-1.6602182 10.47396149-4.13663269 14.88715631-7.44357815 4.41319565-3.3204364 8.27326538-6.903944 11.59370179-10.76401455 3.30694546-3.8735615 6.61389093-8.56331927 9.93348357-14.07096003 8.82723423 19.86696799 20.13088211 39.16816287 33.92443708 57.92888068 13.78090695 18.7607178 29.51124142 35.8612174 47.16570904 51.31498974 17.65446762 16.54737451 37.23138172 31.1579687 58.75941083 43.84527264 21.51453818 12.68730396 43.85876358 22.89735049 67.03267704 30.63098254 13.22778186 4.40054764 25.08455483 10.19739853 35.57200726 17.36441456s19.59040503 15.73033447 27.31138906 25.6646618c7.72014112 8.82723423 14.07096003 18.47066474 19.03812369 28.95811633 4.95367273 10.48745159 7.99670325 21.23797605 9.10379636 32.27770981 1.10625019-11.04057668 4.13663269-21.79110031 9.10379635-32.27770981 4.95367273-10.48745159 11.30364871-20.13088211 19.03727995-28.95811633 7.72014112-9.93348359 16.81128946-18.49764578 27.29789812-25.6646618s22.34422539-12.96386692 35.58465446-17.36441456c23.17391346-7.73363123 45.2415759-17.94367777 66.20298898-30.63098254s40.27525598-27.29789812 57.92888068-43.84527264c18.7607178-15.45377234 35.03153018-32.55427194 48.82508432-51.31498974s25.11069379-38.06191269 33.93792718-57.92888068c2.19985236 5.50679782 5.23023487 10.19739853 9.09030542 14.07096003 3.86007055 3.86007055 7.99670325 7.44357816 12.42338984 10.76401455 4.40054764 3.30694546 9.09030542 5.78335996 14.05746907 7.44357815C852.29749679 440.82523872 857.54037967 441.65492595 863.06066843 441.65492595zM191.0998205 345.66413259c2.19985236 5.50679782 1.37016513 11.02708575-2.48990543 16.54737452-3.86007055 5.52028876-9.10379636 9.38035849-15.71768729 11.59370177-5.52028876 2.19985236-11.31713964 2.19985236-17.37706173 0-6.07341384-2.21334329-9.65692146-5.52028876-10.75052362-9.93348358-1.10625019-5.52028876-0.01349093-11.04057668 3.30694546-16.54737452 3.30694546-5.52028876 8.27326538-9.38035849 14.90064725-11.59370177 6.61389093-3.30694546 12.67381301-3.86007055 18.19410178-1.64672728C186.68662485 336.28377409999996 189.99357031 340.14384465 191.0998205 345.66413259zM513.839815 122.23536784999999c35.30809231 0 68.40284134 4.13663269 99.29773883 12.41074182s57.92888067 19.57775784 81.10363706 33.92443706c23.16126544 14.33403122 41.36801523 31.1579687 54.6092872 50.47181159s19.86696799 41.10494321 19.86696799 65.38594977c0 1.10625019 0 2.19985236 0 3.30694547s0 2.21334329 0 3.32043641l0 1.64672725 0 3.30694547c0 1.10625019 0 2.19985236 0 3.30694547s-0.55312509 1.6602182-1.64672728 1.6602182l0 1.6602182c0 4.40054764-0.82968723 9.36686838-2.48990541 14.8871563s-3.0303825 11.59370178-4.1366327 18.20759272c-2.21334329 5.52028876-4.41319565 11.04057668-6.62653811 16.56086545-2.21334329 5.50679782-4.41319565 9.9208364-6.61389094 13.24042904-6.62653811 9.9208364-14.62408511 18.74722687-24.0044436 26.46821091s-19.57775784 14.34752216-30.60484359 19.86696799c-9.93348359 5.50679782-21.25062323 9.9208364-33.93792719 13.24042905-12.68730396 3.30694546-25.65117087 4.96716367-38.89159991 4.96716365-11.04057668 0-21.23797605-1.10625019-30.61749162-3.30694546-9.38035849-2.21334329-18.48415485-4.96716367-27.31138906-8.27326538-8.82723423-3.3204364-17.37706174-7.45706909-25.65117087-12.42338982s-15.73033447-10.21004654-22.3442254-15.71768729c-6.62653811 5.50679782-14.07096003 10.75052362-22.34422541 15.71768729-8.27326538 4.96716367-16.82393747 9.10379636-25.65117086 12.42338982-8.82723423 3.30694546-18.20759272 6.06076584-28.1410763 8.27326538-9.93348359 2.19985236-19.85431998 3.30694546-29.78780355 3.30694546-13.24042905 0-26.20429596-1.6602182-38.89159992-4.96716365-12.69995197-3.3204364-24.55756869-7.73363123-35.58465445-13.24042905-9.93348359-5.52028876-19.59040503-12.14682687-28.97076434-19.86696799s-17.37706174-16.54737451-23.99095267-26.46821091c-2.21334329-3.3204364-4.41319565-7.73363123-6.62653812-13.24042904-2.21334329-5.52028876-4.41319565-11.04057668-6.61389092-16.56086545-2.21334329-6.61389093-3.86007055-12.68730396-4.96716367-18.20759272s-1.6602182-10.48745159-1.66021821-14.8871563c-1.10625019 0-1.64672726-0.55312509-1.64672725-1.6602182 0-2.21334329 0-3.86007055 0-4.96716367l0-3.30694547 0-1.64672725c0-1.10625019 0-2.21334329 0-3.32043641s0-2.19985236 0-3.30694547c0-24.28100656 6.61389093-46.07210687 19.85431998-65.38594977s31.44802176-36.13777954 54.6219352-50.47181159c23.16126544-14.34752216 50.19524863-25.65117087 81.09014612-33.92443706S478.53172269 122.23536784999999 513.839815 122.23536784999999zM366.53403189 337.3908672c0 5.50679782-1.38365525 9.64427344-4.13663269 12.41074182-2.76646838 2.75382037-5.79685089 4.13663269-9.10379635 4.13663269-4.41319565 0-7.72014112-1.38365525-9.93348358-4.13663269-2.21334329-2.76646838-3.30694546-6.903944-3.30694547-12.41074182 0-4.41319565 1.09360217-7.99670325 3.30694547-10.76401456s5.52028876-4.13663269 9.93348358-4.13663268c3.30694546 0 6.33732798 1.37016513 9.10379635 4.13663268C365.15037664 329.39332103000004 366.53403189 332.97682863 366.53403189 337.3908672zM684.30686355 337.3908672c0 5.50679782-1.38365525 9.64427344-4.13663268 12.41074182-2.76646838 2.75382037-5.79685089 4.13663269-9.10379636 4.13663269s-6.33732798-1.38365525-9.10379635-4.13663269c-2.76646838-2.76646838-4.13663269-6.903944-4.1366327-12.41074182 0-4.41319565 1.37016513-7.99670325 4.1366327-10.76401456s5.79685089-4.13663269 9.10379635-4.13663268 6.33732798 1.37016513 9.10379636 4.13663268C682.92405124 329.39332103000004 684.30686355 332.97682863 684.30686355 337.3908672zM864.72088662 335.73064901c6.61389093 2.21334329 11.56756367 6.07341384 14.88715632 11.59370177 3.30694546 5.50679782 4.41319565 11.02708575 3.30694547 16.54737452-2.21334329 4.41319565-6.07341384 7.72014112-11.58021085 9.93348358-5.52028876 2.19985236-11.04057668 2.19985236-16.54737452-1e-8-6.62653811-2.21334329-11.87026475-6.07341384-15.73033446-11.59370177s-4.68975778-11.04057668-2.47725825-16.54737452c1.10625019-5.52028876 4.41319565-9.38035849 9.93348359-11.58021085C852.02093467 331.87057845000004 858.09434769 332.42370355 864.72088662 335.73064901z"  horiz-adv-x="1024" />

    
    <glyph glyph-name="edge" unicode="&#59358;" d="M164.74954796 428.62517738c40.87480545 456.37507439 740.99933625 456.37507439 692.24990844-103.12479973h-472.12509155c0-160.87512016 217.87459373-211.8755436 409.87509728-103.12479972v-158.25024605c-235.87483406-125.62471389-545.24923325-33.75025749-545.24923325 241.49923325 0 206.62502289 186.3745594 273.00004006 186.3745594 273.00004005 0 0-52.12514877-66.37501717-53.62529754-121.49969102h268.49959374c0 267.00021743-367.50014304 168.0004406-486.000309-28.50050926z"  horiz-adv-x="1024" />

    
    <glyph glyph-name="shoucang" unicode="&#58983;" d="M729.367505 18.204809060000002c-5.0999025 0-10.23050344 1.22029219-14.89198312 3.67622719L512 128.31223594000005 309.52351906 21.881036249999966c-10.69962562-5.66304-23.80817812-4.7238375-33.72497437 2.44058531-9.85443844 7.16442281-14.79796688 19.31842219-12.73344657 31.33139719l38.66850282 225.43947188L137.92562281 440.77047c-8.7281625 8.50943063-11.85660094 21.24287719-8.10266625 32.83373906 3.78559313 11.59086094 13.79640563 20.05328344 25.87269844 21.80601563l226.34701687 32.88074719 101.23824094 205.10413968c10.76198344 21.86837344 46.67715281 21.86837344 57.43913625 0l101.23824094-205.10413969 226.34701687-32.88074718c12.07629187-1.75177219 22.08710531-10.21419469 25.87269844-21.80601563 3.75393469-11.59086094 0.62549625-24.32430844-8.10266625-32.83373906L722.26639906 281.09249156l38.66850282-225.43947187c2.06452031-12.012975-2.87804906-24.16793437-12.73344657-31.33139719C742.63243156 20.269329370000037 736.00044781 18.204809060000002 729.367505 18.204809060000002zM512 196.54501405999997c5.13060187 0 10.23050344-1.22029219 14.89198312-3.67622718l159.92836876-84.06300563-30.53417813 178.05815625c-1.78343063 10.3868775 1.65775594 20.99248688 9.19824375 28.34398313l129.36349125 126.12568687L616.08463063 467.30032219c-10.44923531 1.51769062-19.45944656 8.07196688-24.12092626 17.53499156L512 646.82916188l-79.96466437-161.99384813c-4.66147969-9.46398375-13.67169094-16.01826-24.12092626-17.53499156l-178.76231906-25.96671469 129.36349125-126.12568687c7.53952781-7.35149531 10.98071531-17.95710469 9.19824375-28.34398313l-30.53417812-178.05815625 159.92836875 84.06300562C501.76949656 195.32472187999997 506.86939813 196.54501405999997 512 196.54501405999997z"  horiz-adv-x="1024" />

    
    <glyph glyph-name="github" unicode="&#59045;" d="M359.1125 527.04375M519.93125 761.83125c-214.65 0-388.63125-173.98125-388.63125-388.63125 0-177.80625 119.41875-327.7125 282.43125-373.95 6.525 6.525 16.9875 8.04375 22.275 19.29375 10.0125 21.2625 0.05625 51.91875 3.65625 83.3625-52.36875-10.4625-93.09375 1.51875-112.95 34.425-8.8875 14.7375-11.08125 32.175-21.88125 45.28125-10.6875 13.10625-27.7875 14.85-32.79375 32.56875 64.9125 15.6375 67.33125-66.76875 125.6625-68.79375 17.83125-0.675 27.1125 5.175 43.70625 9.05625 4.6125 20.53125 14.2875 35.8875 28.63125 46.74375l-0.7875 0 0.50625 0.50625c-110.41875 19.6875-156.54375 87.1875-156.54375 167.4 0 38.8125 12.825 74.64375 37.96875 103.66875-15.975 47.64375 1.51875 88.3125 3.88125 94.33125 45.675 4.10625 93.09375-32.625 96.80625-35.55 25.9875 6.975 55.63125 10.74375 88.7625 10.74375 33.35625 0 63.1125-3.88125 89.2125-10.9125 8.8875 6.69375 52.93125 38.30625 95.34375 34.425 2.25-6.13125 19.35-45.7875 4.33125-92.8125 25.48125-28.96875 38.41875-65.025 38.41875-104.0625 0-80.38125-46.35-147.99375-157.1625-167.4l0.3375-0.3375-0.95625 0c6.075-11.7 15.4125-18.7875 21.375-32.2875 2.925-6.6375 3.99375-12.825 4.89375-18.1125 6.525-38.98125-6.1875-89.60625 0.28125-133.93125 0.5625-3.99375 1.40625-8.60625 2.64375-13.66875 156.2625 50.34375 269.325 196.9875 269.325 369.95625C908.61875 587.79375 734.58125 761.83125 519.93125 761.83125z"  horiz-adv-x="1024" />

    
    <glyph glyph-name="zhifubao" unicode="&#58982;" d="M922.61126709 237.05629476000001c-33.65689087 10.30627442-239.58792114 73.4548645-287.95275879 90.9981079 31.72384643 54.4704895 57.02893067 116.83630372 73.6789856 184.76971436h-181.40872192v61.50970459h222.43194579v37.69519044h-222.43194579v102.65075683h-85.53680421c-15.36465454 0-17.22106934-13.921875-17.22106933-13.921875v-88.72888184h-208.63284302v-37.69519043h208.63037109v-61.50970459h-171.02993774v-34.25674439h345.64828491c-12.71475219-43.32128906-29.47521973-84.01904297-49.6222229-121.00726318-77.96530151 25.734375-121.69857788 43.59567261-217.31011963 52.55392456-181.36505127 17.06945801-223.16775513-82.47409057-229.67056274-143.35015869-9.81188965-92.72927857 72.3062439-168.54483032 195.37014771-168.54483032 123.03094482 0 204.67529297 56.67791748 282.63894653 151.09140015 99.8904419-47.64468383 340.73822021-151.8296814 340.73822021-151.8296814l1.68502808 139.57635498zM283.96173096 156.94783528000005c-130.02566528 0-150.61843872 82.07281494-143.68634034 116.39053345 6.77966308 34.16775513 44.43942261 78.63848877 116.75802613 78.63848877 83.0541687 0 157.45742798-21.19345093 246.76721192-64.68283081-62.73248291-81.6715393-139.82189942-130.34619141-219.83889771-130.34619141v0z"  horiz-adv-x="1024" />

    
    <glyph glyph-name="weixinzhifu-copy" unicode="&#58901;" d="M285.37014974-37.6640625l0.2109375 142.75283203c-106.03564453 72.97646484-173.56113281 181.40361328-173.56113282 302.84384766 0 219.8109375 220.37167969 398.01181641 492.23320313 398.0118164 170.42958984 0 320.60478516-70.05849609 408.94980469-176.47998047l-513.47373047-249.95039062-137.72460938 97.171875-18.35771484-14.17148438 119.32998047-212.84560546 585.53613281 328.83398437c30.45673828-51.76933594 48.00673828-109.44667969 48.00673828-170.57460937 0-219.84433594-220.37167969-398.04873047-492.26660156-398.04873047-45.71806641 0-89.82333984 5.31035156-131.74365234 14.84121094l-187.13759766-62.39091797z"  horiz-adv-x="1196" />

    
    <glyph glyph-name="shiyanshiguanli" unicode="&#58974;" d="M845.80855983 239.05722974000003L637.0222911 537.23571695 637.0222911 650.6427075500001l2.00419546 0c22.75428708 0 41.19996561 18.44567853 41.19996561 41.19996561s-18.44567853 41.19996561-41.19996561 41.19996561l-231.88441443 0c-22.75428708 0-41.19996561-18.44567853-41.1999656-41.19996561s18.44567853-41.19996561 41.1999656-41.19996561l3.62912531 0 0-113.4069906L192.03558856 224.84868655000002c-1.98196298-2.83106963-3.45390217-5.8660178-4.43953154-8.99582354-10.68893234-22.20556201-14.71214411-49.16388373-14.7121441-75.45359125 0-14.48339887 2.41639783-28.39814731 6.84917688-41.37930533 0.62941937-2.93300931 1.44476614-5.79783884 2.44768744-8.57291692l6.42215369-13.02051765c5.2588309-8.24783176 12.2973934-15.24769464 20.56910477-20.4694714 5.9705917-6.0774711 14.27935638-9.85052993 23.47164761-9.85052994l5.22523499 0c2.1456579-0.21063016 4.32178308-0.3183327 6.52343334-0.3183327 2.19012287 0 4.35389585 0.10852652 6.48802634 0.3183327l547.09246857 0c2.13413049-0.20898303 4.29889224-0.3183327 6.48802634-0.3183327 2.20165027 0 4.37777545 0.10770254 6.52343334 0.3183327l2.53826285 0c6.86893909 0 13.24349918 2.10695745 18.51962118 5.7056163 11.6012774 5.33787891 21.39597977 13.93039326 28.20826731 24.61438421l6.42231766 13.02051765c1.00292129 2.77507809 1.81826807 5.63990762 2.44752263 8.57291693 4.43277988 12.98099405 6.84917688 26.89590647 6.84917688 41.37930533C875.97145311 176.8028375 868.26164052 214.49126227 845.80855983 239.05722974000003zM468.25125585 504.57490757c2.26982922 3.2416257 3.8725274 6.75053147 4.84004086 10.36401196 2.23376385 4.44117865 3.49820234 9.45232526 3.49820234 14.76220797L476.58949904 650.6427075500001l94.61416005 0 0-120.94157922c0-5.30988272 1.26542642-10.32119412 3.49820232-14.76220798 0.96669113-3.6134805 2.57021164-7.12238626 4.84004087-10.36401196l222.30034221-317.47804816c0.84746035-1.21025721 1.7680394-2.33817297 2.74049424-3.39873294 2.45839169-7.19978797 5.56991757-15.72642883 5.56991757-23.47741131 0-21.98752185-4.66827676-39.81613238-25.44060004-47.29637577L264.14314498 112.92433939c-20.77232409 7.47942023-25.44043606 25.30885391-25.44043606 47.29637577 0 8.38369611 3.64147669 17.67809016 6.15816621 25.21580739l-0.16287175-0.00329342c0.43031744 0.53966711 0.85157693 1.09020327 1.25307504 1.66363028L468.25125585 504.57490757zM737.54281566 149.32527004999997l-83.9071126 113.84307175c-11.17919394-8.10142878-24.91558979-12.89140576-39.77743195-12.89140576-20.93025532 0-39.64074444 9.47702802-52.089647 24.37098294-2.46086197 5.7690195-5.80442651 11.06572769-9.84657733 15.74454391-0.14805011 0.33068408-0.30433503 0.65741556-0.44760938 0.99139307l-0.41137922 0c-11.03196697 12.22575622-26.9980101 19.91267715-44.76239428 19.91267715-30.68460928 0-55.99675745-22.93280364-59.77475601-52.59143682-5.55015536-11.3405842-17.19425061-19.15315796-30.67143476-19.15315796-12.19364347 0-22.88751553 6.39679175-28.92727413 16.01281274l-78.30261118-106.23849307 214.4589483 0 214.4589483 0L737.5424869 149.32527004999997z"  horiz-adv-x="1024" />

    
    <glyph glyph-name="gitoschina" unicode="&#58887;" d="M863.08346233 333.55478738L863.08346233 230.09276307000005 863.08346233 123.39754916000004 759.62143804 123.39754916000004 652.92622543 123.39754916000004 549.4642011 123.39754916000004 442.7689872 123.39754916000004 336.07377458 123.39754916000004 232.61175027 123.39754916000004 232.61175027 230.09276307000005 232.61175027 333.55478738 232.61175027 440.24999999 232.61175027 546.9452126 232.61175027 650.4072369099999 336.07377458 650.4072369099999 442.7689872 650.4072369099999 549.4642011 650.4072369099999 652.92622543 650.4072369099999 652.92622543 546.9452126 652.92622543 440.24999999 652.92622543 333.55478738 549.4642011 333.55478738 442.7689872 333.55478738 442.7689872 440.24999999 549.4642011 440.24999999 549.4642011 546.9452126 442.7689872 546.9452126 336.07377458 546.9452126 336.07377458 440.24999999 336.07377458 333.55478738 336.07377458 230.09276307000005 442.7689872 230.09276307000005 549.4642011 230.09276307000005 652.92622543 230.09276307000005 759.62143804 230.09276307000005 759.62143804 333.55478738 759.62143804 440.24999999 759.62143804 546.9452126 759.62143804 650.4072369099999 759.62143804 757.1024508200001 652.92622543 757.1024508200001 549.4642011 757.1024508200001 442.7689872 757.1024508200001 336.07377458 757.1024508200001 232.61175027 757.1024508200001 125.91653767 757.1024508200001 125.91653767 650.4072369099999 125.91653767 546.9452126 125.91653767 440.24999999 125.91653767 333.55478738 125.91653767 230.09276307000005 125.91653767 123.39754916000004 125.91653767 16.702336570000057 232.61175027 16.702336570000057 336.07377458 16.702336570000057 442.7689872 16.702336570000057 549.4642011 16.702336570000057 652.92622543 16.702336570000057 759.62143804 16.702336570000057 863.08346233 16.702336570000057 969.77867494 16.702336570000057 969.77867494 123.39754916000004 969.77867494 230.09276307000005 969.77867494 333.55478738ZM863.08346233 757.1024508200001l106.69521261 0 0-106.69521261-106.69521261 0 0 106.69521261ZM863.08346233 530.7792711l106.69521261 0 0-106.6952126-106.69521261 0 0 106.6952126Z"  horiz-adv-x="1077" />

    
    <glyph glyph-name="qq" unicode="&#59038;" d="M241.00419922 460.35410156c-4.24248047-9.89912109 1.41416016-16.96728516 0-55.14433594 0-9.89912109-45.24873047-57.97441406-63.62929688-107.46210937-18.38144531-48.07617188-19.79560547-98.97978516 7.06904297-120.18955078 26.86552734-19.79560547 52.31689453 66.45849609 56.56025391 53.73105469 1.41416016-5.65488281 2.82919922-11.31152344 5.65488281-16.96728516 8.48408203-24.03632813 24.03632813-49.48945312 45.24873047-73.52753906 4.24248047-5.65488281-26.86552734-14.14160156-45.24873047-45.24873047-18.38144531-31.10800781 5.65488281-87.66826172 97.56386719-87.66826172 118.77275391 0 144.22587891 41.00712891 147.05419922 41.00712891h18.38144531c11.31152344 0 7.06904297-1.41416016 16.96728516 0 5.65488281 0 63.62929688-49.48945312 142.81347656-41.00712891 135.74443359 14.14160156 114.53115234 59.38681641 104.63642578 87.66826172-11.31152344 29.69472656-50.90361328 43.8328125-48.07617187 45.24873047 32.52216797 35.34960938 38.17705078 57.97441406 48.07617187 90.49394531 4.24248047 14.14160156 35.34960938-74.94082031 60.80097656-53.73105469 9.89912109 8.48408203 29.69472656 43.8328125 9.8991211 120.18955078-19.79560547 74.94082031-59.38681641 93.32314453-57.97441407 107.46210938 1.41416016 29.69472656 1.41416016 49.48945312-1.41416015 55.14433594-7.06904297 25.45224609-22.62392578 19.79560547-22.62392578 25.45224609 0 149.88164062-111.70458984 270.06943359-250.27470703 270.06943359-138.57011719 0-250.27470703-121.60195313-250.27470704-270.06943359-1.41416016-11.31152344-12.72480469-2.82919922-21.20976562-25.45224609z"  horiz-adv-x="1024" />

    
    <glyph glyph-name="source-branch" unicode="&#59574;" d="M552.00000031 304.00000031c-134.4 0-178.39999969-54-192.80000062-89.60000062C402.00000031 196.00000031000002 432.00000031 153.60000000000002 432.00000031 103.99999968999998a120 120 0 0 0-120-120 120 120 0 0 0-120 120c0 52.39999969 33.19999969 96.79999969 79.99999969 113.20000031V550.8A119.59999969 119.59999969 0 0 0 192.00000031 664.00000031a120 120 0 0 0 120 120 120 120 0 0 0 120-120c0-52.39999969-33.19999969-96.79999969-80.00000062-113.20000031v-211.60000031c35.20000031 25.99999969 86.4 44.80000031 160.00000031 44.80000031 106.8 0 142.39999969 53.59999969 154.00000031 89.20000031A120.24 120.24 0 0 0 591.99999969 583.99999969a120 120 0 0 0 120 120 120 120 0 0 0 120-120c0-53.59999969-35.20000031-100.00000031-83.59999969-114.39999938C738.00000031 412.39999969 699.2 304.00000031 552.00000031 304.00000031m-240-160.00000031a40.00000031 40.00000031 0 0 1-40.00000031-40.00000031 40.00000031 40.00000031 0 0 1 40.00000031-39.99999938 40.00000031 40.00000031 0 0 1 39.99999938 39.99999938 40.00000031 40.00000031 0 0 1-39.99999938 40.00000031M312.00000031 703.99999969a40.00000031 40.00000031 0 0 1-40.00000031-39.99999938 40.00000031 40.00000031 0 0 1 40.00000031-40.00000031 40.00000031 40.00000031 0 0 1 39.99999938 40.00000031 40.00000031 40.00000031 0 0 1-39.99999938 39.99999938m399.99999938-79.99999969a40.00000031 40.00000031 0 0 1-39.99999938-40.00000031 40.00000031 40.00000031 0 0 1 39.99999938-39.99999938 40.00000031 40.00000031 0 0 1 40.00000031 39.99999938 40.00000031 40.00000031 0 0 1-40.00000031 40.00000031z"  horiz-adv-x="1024" />

    
    <glyph glyph-name="firefox" unicode="&#59051;" d="M671.30703125 726.57972005c124.91630859-47.46796875 232.34414063-181.41416016 232.34414063-312.29121094 0-53.13076172-3.99199219-97.62451172-22.60195313-144.10722656-59.68476562-149.0765625-205.48564453-254.37568359-375.88095703-254.3756836-138.48925781 0-260.7328125 69.55751953-333.69960938 175.64238282-44.80400391 65.13925781-52.29228516 135.30585937-52.29228515 220.34267578 0 129.26689453 41.8640625 253.12324219 136.20673828 327.2203125l3.69931641-107.36806641h49.96669921s52.46455078 89.93935547 177.38085938 92.43808594c0 0-99.93339844-107.42783203-64.95644531-144.90263672l99.93339843-2.49873047s64.95644531-32.47822266-87.4415039-104.92998047v-77.44833984l-49.96669922 32.47822266s-27.48164062 7.4953125-9.99316406-39.97353516 84.94277344-37.47480469 84.94277343-37.47480469l52.46455079 27.48164063s32.47822266 14.98974609 79.9461914 7.4953125c47.46796875-7.4953125 14.98974609-47.46796875 14.9897461-47.46796875l-29.9803711-4.99658203s-47.46796875-49.96669922-82.44492187-59.95986329-87.44150391-9.99316406-87.44150391-9.99316406 122.41845703-102.43125 264.82236328 9.99316406 2.49873047 267.32109375 2.49873047 267.32109375 54.96328125 14.98974609 99.93339844-92.43808593c0 0 12.21064453 136.03886719-89.93935547 264.82236328-2.79755859 3.5296875-12.49013672 14.990625-12.49013672 14.990625z"  horiz-adv-x="1024" />

    
    <glyph glyph-name="eoLinkerAMS" unicode="&#58916;" d="M150.70976 343.0958079999999l18.35264-9.643008c-6.019584-11.820032-12.972544-21.361152-20.860416-28.617728-7.888384-7.258624-16.760832-12.77952-26.619904-16.563712-9.861632-3.78368-21.018624-5.676544-33.470464-5.676544-27.60704 0-49.191424 9.044992-64.759296 27.140096-15.56736 18.092544-23.351808 38.544896-23.351808 61.356544 0 21.463552 6.588416 40.59392 19.769856 57.391104 16.707584 21.358592 39.072256 32.039936 67.094528 32.039936 28.8512 0 51.889152-10.940928 69.116416-32.817152 12.246016-15.451136 18.471936-34.73664 18.680832-57.857536h-152.264704c0.413184-19.655168 6.694912-35.767808 18.841088-48.336384 12.146176-12.569088 27.147264-18.853376 45.004288-18.853376 8.614912 0 16.996352 1.4976 25.147392 4.493312 8.14848 2.994176 15.076864 6.972416 20.787712 11.9296 5.710336 4.957696 11.887616 12.962304 18.53184 24.014848z m0 45.571072c-2.906624 11.611136-7.137792 20.89216-12.692992 27.839488-5.5552 6.945792-12.899328 12.544512-22.034432 16.797696-9.137664 4.250624-18.7392 6.37696-28.807168 6.37696-16.612864 0-30.887424-5.341696-42.824192-16.019456-8.72192-7.776768-15.314944-19.441664-19.777024-34.994688h126.135808zM295.353856 460.52198400000003c26.070528 0 47.675392-9.436672 64.815104-28.306944 15.579648-17.212928 23.370752-37.587456 23.370752-61.124096 0-23.640064-8.233472-44.301824-24.695296-61.978624-16.464896-17.67936-37.628928-26.518016-63.49056-26.518016-25.969152 0-47.184384 8.838144-63.646208 26.518016-16.464384 17.6768-24.695296 38.33856-24.695296 61.978624 0 23.432192 7.788544 43.75552 23.371264 60.967936 17.137152 18.975744 38.79424 28.463104 64.97024 28.463104z m-0.078336-21.307904c-18.10432 0-33.662464-6.687232-46.6688-20.063232-13.005824-13.376-19.509248-29.550592-19.509248-48.525824 0-12.236288 2.96448-23.641088 8.896512-34.216448 5.929472-10.576384 13.942272-18.74176 24.036864-24.496128 10.092544-5.754368 21.174272-8.631808 33.244672-8.631808 12.068352 0 23.15008 2.87744 33.244672 8.631808 10.092544 5.754368 18.104832 13.920256 24.036864 24.496128 5.929472 10.57536 8.897024 21.98016 8.897024 34.216448 0 18.975232-6.530048 35.149824-19.589632 48.525824-13.059584 13.376-28.588544 20.063232-46.588928 20.063232zM427.399168 515.7355520000001h22.862848v-206.701056H538.292736v-22.08512H427.399168V515.7355520000001zM578.497024 525.844992c4.955136 0 9.188352-1.764352 12.698112-5.287936 3.509248-3.526144 5.26592-7.776768 5.26592-12.753408 0-4.874752-1.757184-9.074176-5.26592-12.59776-3.509248-3.526144-7.742464-5.287936-12.698112-5.287936-4.852736 0-9.035264 1.761792-12.544512 5.287936-3.509248 3.523584-5.263872 7.723008-5.263872 12.59776 0 4.977152 1.754624 9.227264 5.263872 12.753408 3.509248 3.523584 7.691776 5.287936 12.544512 5.287936z m-10.809344-69.67808h21.774336v-169.217536h-21.774336V456.1669120000001zM634.721792 456.1669120000001h21.774336v-30.32832c8.709632 11.611136 18.35264 20.296704 28.928512 26.051584 10.576384 5.754368 22.085632 8.631808 34.527744 8.631808 12.64896 0 23.873536-3.21536 33.672704-9.64352 9.798144-6.429696 17.030656-15.08608 21.696512-25.973248s6.99904-27.839488 6.99904-50.858496v-87.097344h-21.774336V367.67027200000007c0 19.49184-0.809472 32.505344-2.422784 39.037952-2.522624 11.197952-7.363072 19.620864-14.51776 25.273856-7.154176 5.64992-16.488448 8.47616-27.997696 8.47616-13.1712 0-24.969728-4.35456-35.390464-13.064704-10.422784-8.70912-17.2928-19.4944-20.61056-32.350208-2.075136-8.398848-3.1104-23.745024-3.1104-46.037504v-62.05696h-21.774336V456.1669120000001zM828.824576 521.48992h21.774336v-133.616128L929.05216 456.16640000000007h31.973888L868.018176 375.44652800000006l98.451456-88.497152h-30.647296L850.598912 363.138048v-76.188672h-21.774336V521.48992zM1131.332096 343.0958079999999l18.35264-9.643008c-6.019584-11.820032-12.972544-21.361152-20.860416-28.617728-7.888384-7.258624-16.760832-12.77952-26.620928-16.563712-9.861632-3.78368-21.018112-5.676544-33.470464-5.676544-27.606528 0-49.191424 9.044992-64.759296 27.140096-15.56736 18.092544-23.351296 38.544896-23.351296 61.356544 0 21.463552 6.588416 40.59392 19.769856 57.391104 16.707584 21.358592 39.072256 32.039936 67.094528 32.039936 28.8512 0 51.88864-10.940928 69.115904-32.817152 12.246016-15.451136 18.471936-34.73664 18.680832-57.857536h-152.265216c0.413184-19.655168 6.694912-35.767808 18.8416-48.336384 12.145664-12.569088 27.147264-18.853376 45.004288-18.853376 8.614912 0 16.996864 1.4976 25.147392 4.493312 8.147968 2.994176 15.076864 6.972416 20.787712 11.9296 5.710848 4.957696 11.88864 12.962304 18.532864 24.014848z m0 45.571072c-2.906624 11.611136-7.13728 20.89216-12.69248 27.839488-5.5552 6.945792-12.898816 12.544512-22.03392 16.797696-9.137664 4.250624-18.7392 6.37696-28.807168 6.37696-16.612864 0-30.887424-5.341696-42.824704-16.019456-8.72192-7.776768-15.314944-19.441664-19.776-34.994688H1131.332096zM1187.634176 456.1669120000001h22.24128v-24.729088c6.633984 9.744896 13.633024 17.030144 20.996608 21.85216 7.361536 4.820992 15.033344 7.232 23.018496 7.232 6.012416 0 12.442624-1.92 19.285504-5.75488l-11.3536-18.352128c-4.563456 1.968128-8.398336 2.954752-11.509248 2.954752-7.259136 0-14.257664-2.981888-20.996608-8.943104-6.741504-5.963264-11.873792-15.217664-15.397888-27.762176-2.697216-9.643008-4.043776-29.137408-4.043776-58.479616v-57.234944h-22.24128V456.1669120000001zM1446.061568 459.63929600000006h27.353088l43.02592-172.68992h-31.463936l-9.155584 36.744704h-68.51328l-19.64544-36.744704h-34.87232l93.271552 172.68992z m21.790208-105.421824l-13.806592 56.876544-30.414848-56.876544h44.22144zM1577.430016 459.63929600000006h29.398528l29.297664-120.330752 59.69408 120.330752h27.941888l2.348032-172.68992h-30.288384l-1.409024 103.3088-51.252736-103.3088h-24.753664l-26.304 108.473856-27.56096-108.473856h-30.992384l43.88096 172.68992zM1869.216256 435.57324800000004l-23.597056-20.896256c-9.70496 12.52096-18.74432 18.783232-27.118592 18.783232-4.149248 0-7.591936-1.232896-10.330624-3.697664-2.740736-2.46528-4.1088-5.420544-4.1088-8.863744 0-3.209728 1.251328-6.770688 3.756544-10.68288 2.504192-3.914752 10.096128-12.560896 22.774784-25.944576 6.730752-7.122432 11.152384-12.170752 13.26592-15.143936 5.086208-6.887936 8.745984-13.3248 10.976256-19.311616 2.231296-5.986816 3.34592-12.073472 3.34592-18.25536 0-13.852672-4.93056-25.475072-14.792192-34.866688-9.86112-9.391104-22.501376-14.087168-37.91872-14.087168-23.479296 0-42.614784 11.152384-57.406976 33.458176l24.88832 20.075008c10.016768-15.261696 20.855808-22.892032 32.518656-22.892032 5.556224 0 10.231808 1.799168 14.0288 5.400064 3.795456 3.598848 5.69344 7.942144 5.69344 13.0304 0 3.991552-1.155584 8.060416-3.463168 12.209152-2.309632 4.147712-8.90368 11.974656-19.78112 23.479296-11.504128 12.130816-19.058176 21.287424-22.657024 27.470848-4.85376 8.37376-7.278592 16.59136-7.278592 24.653824 0 10.642432 3.4816 20.192256 10.447872 28.644864 8.764416 10.565632 20.583424 15.848448 35.453952 15.848448 20.427264-0.001024 37.526528-9.472512 51.3024-28.411392z"  horiz-adv-x="1869" />

    
    <glyph glyph-name="bijibendiannao" unicode="&#60091;" d="M853.333333 213.333333h42.666667v-85.333333H128v85.333333h42.666667V640h682.666666v-426.666667zM256 554.666667v-298.666667h512V554.666667H256z"  horiz-adv-x="1024" />

    
    <glyph glyph-name="bianjibiaoge" unicode="&#60092;" d="M503.466667 725.333333l243.2-243.2-328.533334-328.533333H174.933333v243.2L503.466667 725.333333zM256 366.933333v-128h128l234.666667 243.2-115.2 119.466667L256 366.933333z m-85.333333-256h128v-85.333333H170.666667v85.333333z m170.666666 0h213.333334v-85.333333H341.333333v85.333333z m256 0h256v-85.333333h-256v85.333333z"  horiz-adv-x="1024" />

    
    <glyph glyph-name="chizi" unicode="&#60093;" d="M597.333333 584.533333l68.266667-68.266666-29.866667-29.866667L567.466667 554.666667 512 499.2l68.266667-68.266667-29.866667-29.866666-68.266667 68.266666-55.466666-55.466666 68.266666-68.266667-29.866666-29.866667L396.8 384 341.333333 328.533333l68.266667-68.266666-29.866667-29.866667L311.466667 298.666667l-59.733334-59.733334 119.466667-119.466666 409.6 409.6-119.466667 119.466666L597.333333 584.533333zM657.066667 768l243.2-243.2L371.2-4.266667 128 238.933333 657.066667 768z"  horiz-adv-x="1024" />

    
    <glyph glyph-name="biaoqian" unicode="&#60094;" d="M448 42.666667L170.666667 320 576 725.333333H853.333333v-277.333333L448 42.666667z m0 119.466666L768 469.333333V640h-170.666667l-307.2-320 157.866667-157.866667zM682.666667 597.333333c25.6 0 42.666667-17.066667 42.666666-42.666666s-17.066667-42.666667-42.666666-42.666667-42.666667 17.066667-42.666667 42.666667 17.066667 42.666667 42.666667 42.666666z"  horiz-adv-x="1024" />

    
    <glyph glyph-name="dayinji" unicode="&#60095;" d="M341.333333 554.666667h341.333334V597.333333H341.333333v-42.666666zM256 554.666667V682.666667h512v-128h85.333333v-384h-85.333333v-85.333334H256v85.333334H170.666667V554.666667h85.333333z m85.333333-85.333334H256v-170.666666h512v170.666666H341.333333z m341.333334-298.666666v42.666666H341.333333v-42.666666h341.333334z m-384 256h85.333333v-85.333334H298.666667v85.333334z"  horiz-adv-x="1024" />

    
    <glyph glyph-name="baocun" unicode="&#60096;" d="M426.666667 213.333333v-42.666666h170.666666v42.666666h-170.666666z m-42.666667 85.333334h298.666667v-128h42.666666V477.866667L605.866667 597.333333H298.666667v-426.666666h42.666666v128h42.666667z m260.266667 384L810.666667 516.266667V85.333333H213.333333V682.666667h430.933334zM341.333333 554.666667h85.333334v-170.666667H341.333333V554.666667z"  horiz-adv-x="1024" />

    
    <glyph glyph-name="bianji" unicode="&#60097;" d="M499.2 614.4l243.2-243.2L413.866667 42.666667H170.666667v243.2l328.533333 328.533333z m0-123.733333L256 247.466667V128h119.466667l243.2 243.2-119.466667 119.466667zM614.4 725.333333L853.333333 482.133333l-72.533333-72.533333-243.2 243.2L614.4 725.333333z"  horiz-adv-x="1024" />

    
    <glyph glyph-name="daochu" unicode="&#60098;" d="M712.533333 524.8l-128-128-59.733333 59.733333 128 128L597.333333 640l-42.666666 42.666667h256v-256l-42.666667 42.666666-55.466667 55.466667zM657.066667 640H768v-110.933333V640h-110.933333zM298.666667 597.333333v-426.666666h426.666666v256l85.333334-85.333334v-256H213.333333V682.666667h256l85.333334-85.333334H298.666667z"  horiz-adv-x="1024" />

    
    <glyph glyph-name="daoru" unicode="&#60099;" d="M746.666667 426.666667H554.666667V682.666667l42.666666-42.666667 51.2-51.2L746.666667 682.666667l59.733333-59.733334-98.133333-98.133333 21.333333-21.333333 38.4-34.133334 42.666667-42.666666h-64zM512 682.666667v-85.333334H298.666667v-426.666666h426.666666v213.333333h85.333334v-298.666667H213.333333V682.666667h298.666667z"  horiz-adv-x="1024" />

    
    <glyph glyph-name="diannao" unicode="&#60100;" d="M554.666667 213.333333v-42.666666h85.333333v-85.333334H384v85.333334h85.333333v42.666666H170.666667V682.666667h682.666666v-469.333334h-298.666666z m0 85.333334h213.333333V597.333333H256v-298.666666h298.666667z"  horiz-adv-x="1024" />

    
    <glyph glyph-name="fuzhi" unicode="&#60101;" d="M682.666667 554.666667h128v-469.333334H341.333333v128H213.333333V682.666667h469.333334v-128z m0-85.333334v-256h-256v-42.666666h298.666666v298.666666h-42.666666zM298.666667 597.333333v-298.666666h298.666666V597.333333H298.666667z"  horiz-adv-x="1024" />

    
    <glyph glyph-name="ding" unicode="&#60102;" d="M405.333333 465.066667l136.533334 136.533333-29.866667 29.866667L605.866667 725.333333l273.066666-273.066666-89.6-89.6-29.866666 29.866666-140.8-136.533333 59.733333-59.733333-89.6-89.6L256 435.2l89.6 89.6 59.733333-59.733333z m128-145.066667l162.133334 162.133333-64 64L469.333333 384l64-64z m-162.133333-34.133333l59.733333-59.733334-200.533333-200.533333L170.666667 89.6l200.533333 196.266667z"  horiz-adv-x="1024" />

    
    <glyph glyph-name="jianqie" unicode="&#60103;" d="M405.333333 196.266667H682.666667V473.6l-277.333334-277.333333zM341.333333 251.733333l285.866667 285.866667H341.333333v-285.866667z m371.2 371.2L814.933333 725.333333l59.733334-59.733333L768 558.933333v-362.666666h85.333333v-85.333334h-85.333333v-85.333333h-85.333333v85.333333H256v426.666667H170.666667v85.333333h85.333333v85.333334h85.333333v-85.333334h371.2z"  horiz-adv-x="1024" />

    
    <glyph glyph-name="jianpan" unicode="&#60104;" d="M896 640v-512H128V640h768zM298.666667 426.666667H213.333333v-85.333334h85.333334v85.333334z m128 0H341.333333v-85.333334h85.333334v85.333334z m128 0h-85.333334v-85.333334h85.333334v85.333334z m128 0h-85.333334v-85.333334h85.333334v85.333334z m128 0h-85.333334v-85.333334h85.333334v85.333334zM341.333333 554.666667H213.333333v-85.333334h128V554.666667z m128 0H384v-85.333334h85.333333V554.666667z m128 0h-85.333333v-85.333334h85.333333V554.666667z m213.333334 0h-170.666667v-85.333334h170.666667V554.666667zM341.333333 298.666667H213.333333v-85.333334h128v85.333334z m298.666667 0H384v-85.333334h256v85.333334z m170.666667 0h-128v-85.333334h128v85.333334z"  horiz-adv-x="1024" />

    
    <glyph glyph-name="jiesuo" unicode="&#60105;" d="M597.333333 426.666667v42.666666h85.333334v-42.666666h-85.333334z m-170.666666 0H341.333333V554.666667c0 93.866667 76.8 170.666667 170.666667 170.666666s170.666667-76.8 170.666667-170.666666v-42.666667h-85.333334V554.666667c0 46.933333-38.4 85.333333-85.333333 85.333333s-85.333333-38.4-85.333333-85.333333v-128z m-170.666667 42.666666h512v-426.666666H256V469.333333z m85.333333-85.333333v-256h341.333334v256H341.333333z m170.666667-170.666667c-25.6 0-42.666667 17.066667-42.666667 42.666667s17.066667 42.666667 42.666667 42.666667 42.666667-17.066667 42.666667-42.666667-17.066667-42.666667-42.666667-42.666667z"  horiz-adv-x="1024" />

    
    <glyph glyph-name="shaixuan" unicode="&#60106;" d="M554.666667 277.333333v-85.333333l-42.666667 25.6v187.733333L341.333333 597.333333h384l-170.666666-187.733333v-132.266667z m85.333333 89.6L938.666667 682.666667H128l298.666667-315.733334V170.666667l213.333333-128v324.266666z"  horiz-adv-x="1024" />

    
    <glyph glyph-name="shouji" unicode="&#60107;" d="M341.333333 0H256V768h512v-768H341.333333z m0 85.333333h341.333334V682.666667H341.333333v-597.333334z m85.333334 42.666667v85.333333h170.666666v-85.333333h-170.666666z"  horiz-adv-x="1024" />

    
    <glyph glyph-name="suoding" unicode="&#60108;" d="M256 469.333333h512v-426.666666H256V469.333333z m85.333333-85.333333v-256h341.333334v256H341.333333z m0 42.666667H256v42.666666h85.333333V554.666667c0 93.866667 76.8 170.666667 170.666667 170.666666s170.666667-76.8 170.666667-170.666666v-85.333334h85.333333v-42.666666h-170.666667V554.666667c0 46.933333-38.4 85.333333-85.333333 85.333333s-85.333333-38.4-85.333333-85.333333v-128H341.333333z m170.666667-213.333334c-25.6 0-42.666667 17.066667-42.666667 42.666667s17.066667 42.666667 42.666667 42.666667 42.666667-17.066667 42.666667-42.666667-17.066667-42.666667-42.666667-42.666667z"  horiz-adv-x="1024" />

    
    <glyph glyph-name="tupian" unicode="&#60109;" d="M810.666667 256V554.666667H213.333333v-277.333334l59.733334 55.466667 115.2-98.133333 226.133333 196.266666L810.666667 256z m85.333333 384v-512H128V640h768z"  horiz-adv-x="1024" />

    
    <glyph glyph-name="tianjiafujian" unicode="&#60110;" d="M512 277.333333H256c-93.866667 0-170.666667 76.8-170.666667 170.666667s76.8 170.666667 170.666667 170.666667h435.2c128 0 247.466667-106.666667 247.466667-234.666667s-115.2-234.666667-247.466667-234.666667H341.333333v85.333334h349.866667c81.066667 0 162.133333 68.266667 162.133333 149.333333s-76.8 149.333333-162.133333 149.333333H243.2c-46.933333 0-81.066667-38.4-81.066667-85.333333s34.133333-85.333333 81.066667-85.333333h362.666667c12.8 0 21.333333 12.8 21.333333 21.333333 0 12.8-8.533333 21.333333-21.333333 21.333333H341.333333v85.333334h264.533334c59.733333 0 106.666667-46.933333 106.666666-106.666667s-46.933333-106.666667-106.666666-106.666667H512z"  horiz-adv-x="1024" />

    
    <glyph glyph-name="wenben" unicode="&#60111;" d="M512 85.333333H213.333333V682.666667h597.333334v-384l-213.333334-213.333334h-85.333333z m213.333333 243.2V597.333333H298.666667v-426.666666h268.8l157.866666 157.866666zM640 426.666667H384V512h256v-85.333333z m-85.333333-128H384v85.333333h170.666667v-85.333333z"  horiz-adv-x="1024" />

    
    <glyph glyph-name="bangongbao" unicode="&#60112;" d="M426.666667 426.666667H256V512h512v-85.333333h-170.666667v-42.666667h-170.666666v42.666667z m213.333333 213.333333h213.333333v-554.666667H170.666667V640h213.333333V682.666667h256v-42.666667zM256 554.666667v-384h512V554.666667H256z"  horiz-adv-x="1024" />

    
    <glyph glyph-name="shu" unicode="&#60113;" d="M384 597.333333H298.666667v-426.666666h85.333333V597.333333z m85.333333 0v-426.666666h256V597.333333h-256zM213.333333 682.666667h597.333334v-597.333334H213.333333V682.666667z"  horiz-adv-x="1024" />

    
    <glyph glyph-name="wenjianjia" unicode="&#60114;" d="M853.333333 597.333333v-512H170.666667V682.666667h221.866666l42.666667-42.666667H853.333333v-42.666667zM256 554.666667v-384h512V554.666667H256z m298.666667-256h170.666666v-85.333334h-170.666666v85.333334z"  horiz-adv-x="1024" />

    
    <glyph glyph-name="touyingyi" unicode="&#60115;" d="M554.666667 204.8l81.066666-81.066667-59.733333-59.733333L512 128l-68.266667-68.266667L384 119.466667l85.333333 85.333333V256H170.666667V682.666667h298.666666V725.333333h85.333334v-42.666666h298.666666v-426.666667h-298.666666v-51.2zM256 597.333333v-256h512V597.333333H256z"  horiz-adv-x="1024" />

    
    <glyph glyph-name="cangku_cangchuguanli" unicode="&#60116;" d="M477.866667 443.733333V469.333333h64v-25.6c17.066667-4.266667 29.866667-12.8 38.4-21.333333l21.333333 12.8 34.133333-55.466667-21.333333-12.8c0-8.533333 4.266667-17.066667 4.266667-21.333333s0-17.066667-4.266667-21.333333l21.333333-12.8-34.133333-55.466667-21.333333 12.8c-12.8-8.533333-25.6-17.066667-38.4-21.333333v-34.133334h-64v25.6c-17.066667 4.266667-29.866667 12.8-38.4 21.333334l-21.333334-12.8-34.133333 55.466666 21.333333 12.8c0 8.533333-4.266667 17.066667-4.266666 21.333334s0 17.066667 4.266666 21.333333l-21.333333 21.333333 34.133333 55.466667 21.333334-12.8c12.8 8.533333 25.6 17.066667 38.4 21.333333zM170.666667 85.333333H85.333333v320H42.666667L345.6 682.666667l59.733333-55.466667-166.4-153.6L170.666667 418.133333V170.666667h42.666666v-85.333334H170.666667z m686.933333 0H810.666667v85.333334h46.933333v247.466666l-64 55.466667-166.4 153.6L682.666667 682.666667l302.933333-277.333334h-42.666667V85.333333h-85.333333z m-85.333333 320V85.333333h-512v320H213.333333L512 682.666667l302.933333-277.333334h-42.666666z m-426.666667 12.8V170.666667h341.333333v247.466666L512 571.733333l-166.4-153.6zM512 298.666667c25.6 0 42.666667 17.066667 42.666667 42.666666s-17.066667 42.666667-42.666667 42.666667-42.666667-17.066667-42.666667-42.666667 17.066667-42.666667 42.666667-42.666666z"  horiz-adv-x="1024" />

    
    <glyph glyph-name="cangku_kucun" unicode="&#60117;" d="M640 170.666667v128h128v-128h85.333333v-128h-128v128h-42.666666v-128h-128v128h85.333333z m213.333333 128h-85.333333v51.2l-256 256-256-256V128h256v-85.333333H170.666667v298.666666H128l384 384 384-384h-42.666667v-42.666666z"  horiz-adv-x="1024" />

    
    <glyph glyph-name="cangku_kucunxiangqing" unicode="&#60118;" d="M853.333333 298.666667h-85.333333v51.2l-256 256-256-256V128h256v-85.333333H170.666667v298.666666H128l384 384 384-384h-42.666667v-42.666666z m-298.666666-42.666667h85.333333v-85.333333h-85.333333v85.333333z m0-128h85.333333v-85.333333h-85.333333v85.333333z m128 128h213.333333v-85.333333h-213.333333v85.333333z m0-128h213.333333v-85.333333h-213.333333v85.333333z"  horiz-adv-x="1024" />

    
    <glyph glyph-name="cangku" unicode="&#60119;" d="M896 341.333333h-42.666667v-298.666666H170.666667v298.666666H128l384 384 384-384z m-640 8.533334V128h512v221.866667l-256 256-256-256z m174.933333 76.8h170.666667v-85.333334h-170.666667v85.333334z"  horiz-adv-x="1024" />

    
    <glyph glyph-name="cangku_zhongzhuanchuzhan" unicode="&#60556;" d="M729.6 128L682.666667 174.933333l59.733333 59.733334 149.333333-149.333334-149.333333-149.333333-59.733333 59.733333 46.933333 46.933334H512v85.333333h217.6z m123.733333 128h-85.333333v93.866667l-256 256-256-256V128h213.333333v-85.333333H170.666667v298.666666H128l384 384 384-384h-42.666667v-85.333333z m-422.4 170.666667h170.666667v-85.333334h-170.666667v85.333334z"  horiz-adv-x="1024" />

    
    <glyph glyph-name="cangku_cangneishicao" unicode="&#60558;" d="M853.333333 298.666667h-85.333333v51.2l-256 256-256-256V128h341.333333v-85.333333H170.666667v298.666666H128l384 384 384-384h-42.666667v-42.666666z m-106.666666-128c-34.133333 0-64 29.866667-64 64s29.866667 64 64 64 64-29.866667 64-64-29.866667-64-64-64zM682.666667 170.666667h128l42.666666-42.666667v-85.333333h-213.333333v85.333333l42.666667 42.666667z"  horiz-adv-x="1024" />

    
    <glyph glyph-name="fuwuguanli" unicode="&#60554;" d="M644.266667 371.2c-21.333333-21.333333-46.933333-38.4-76.8-46.933333l-12.8-25.6h-85.333334l-12.8 29.866666c-29.866667 8.533333-55.466667 25.6-76.8 46.933334l-29.866666-4.266667-42.666667 72.533333 21.333333 25.6c-8.533333 12.8-8.533333 25.6-8.533333 42.666667s0 29.866667 4.266667 46.933333l-17.066667 21.333334 42.666667 72.533333 29.866666-4.266667c21.333333 21.333333 46.933333 38.4 76.8 46.933334L469.333333 725.333333h85.333334l12.8-29.866666c29.866667-8.533333 55.466667-25.6 76.8-46.933334l29.866666 4.266667 42.666667-72.533333-21.333333-25.6c4.266667-12.8 4.266667-29.866667 4.266666-46.933334s0-29.866667-4.266666-46.933333l21.333333-25.6-42.666667-72.533333-29.866666 8.533333z m-4.266667-217.6V42.666667h-85.333333v174.933333c119.466667 21.333333 213.333333 123.733333 213.333333 251.733333h85.333333c0-145.066667-89.6-264.533333-213.333333-315.733333z m-256 0c-123.733333 51.2-213.333333 174.933333-213.333333 315.733333h85.333333c0-128 93.866667-230.4 213.333333-251.733333V42.666667H384v110.933333z m128 230.4c72.533333 0 128 55.466667 128 128s-55.466667 128-128 128-128-55.466667-128-128 55.466667-128 128-128z m0 85.333333c-25.6 0-42.666667 17.066667-42.666667 42.666667s17.066667 42.666667 42.666667 42.666667 42.666667-17.066667 42.666667-42.666667-17.066667-42.666667-42.666667-42.666667z"  horiz-adv-x="1024" />

    
    <glyph glyph-name="fuwuliu" unicode="&#60120;" d="M853.333333 281.6c-4.266667 8.533333-12.8 12.8-21.333333 17.066667-21.333333 12.8-42.666667 12.8-64 8.533333v153.6c21.333333-4.266667 42.666667-4.266667 64 8.533333 8.533333 4.266667 17.066667 12.8 21.333333 17.066667v-204.8z m-89.6-140.8l-170.666666-93.866667v17.066667c0 21.333333-8.533333 42.666667-21.333334 59.733333l132.266667 76.8c4.266667-21.333333 21.333333-38.4 38.4-51.2 8.533333-4.266667 17.066667-4.266667 21.333333-8.533333zM170.666667 486.4c4.266667-4.266667 12.8-12.8 21.333333-17.066667 21.333333-12.8 42.666667-12.8 64-8.533333v-153.6c-21.333333 4.266667-42.666667 4.266667-64-8.533333-8.533333-4.266667-17.066667-12.8-21.333333-17.066667V486.4z m89.6 140.8l170.666666 93.866667v-17.066667c0-21.333333 8.533333-42.666667 21.333334-59.733333L315.733333 567.466667c-4.266667 21.333333-17.066667 38.4-38.4 51.2-4.266667 4.266667-12.8 4.266667-17.066666 8.533333z m0-486.4c4.266667 0 12.8 4.266667 17.066666 8.533333 21.333333 12.8 34.133333 29.866667 38.4 51.2l132.266667-76.8c-12.8-17.066667-21.333333-38.4-21.333333-59.733333v-17.066667l-166.4 93.866667zM763.733333 627.2c-4.266667 0-12.8-4.266667-17.066666-8.533333-21.333333-12.8-34.133333-29.866667-38.4-51.2l-132.266667 76.8c12.8 17.066667 21.333333 38.4 21.333333 59.733333v17.066667l166.4-93.866667z m-285.866666-98.133333V554.666667h64v-25.6c29.866667-8.533333 59.733333-21.333333 76.8-46.933334l21.333333 12.8 34.133333-55.466666-21.333333-12.8c4.266667-12.8 8.533333-29.866667 8.533333-46.933334s-4.266667-29.866667-8.533333-46.933333l21.333333-12.8-34.133333-55.466667-21.333333 12.8c-21.333333-21.333333-46.933333-38.4-76.8-46.933333v-17.066667h-64v25.6c-29.866667 8.533333-59.733333 21.333333-76.8 46.933334l-21.333334-12.8-34.133333 55.466666 21.333333 12.8c-4.266667 12.8-8.533333 29.866667-8.533333 46.933334s4.266667 29.866667 8.533333 46.933333l-21.333333 12.8 34.133333 55.466667 21.333334-12.8c21.333333 17.066667 46.933333 34.133333 76.8 38.4zM512 298.666667c46.933333 0 85.333333 38.4 85.333333 85.333333s-38.4 85.333333-85.333333 85.333333-85.333333-38.4-85.333333-85.333333 38.4-85.333333 85.333333-85.333333z m0 42.666666c-25.6 0-42.666667 17.066667-42.666667 42.666667s17.066667 42.666667 42.666667 42.666667 42.666667-17.066667 42.666667-42.666667-17.066667-42.666667-42.666667-42.666667z m0 320c-25.6 0-42.666667 17.066667-42.666667 42.666667s17.066667 42.666667 42.666667 42.666667 42.666667-17.066667 42.666667-42.666667-17.066667-42.666667-42.666667-42.666667z m0-640c-25.6 0-42.666667 17.066667-42.666667 42.666667s17.066667 42.666667 42.666667 42.666667 42.666667-17.066667 42.666667-42.666667-17.066667-42.666667-42.666667-42.666667z m238.933333 503.466667c-12.8 21.333333-4.266667 46.933333 17.066667 59.733333 21.333333 12.8 46.933333 4.266667 59.733333-17.066666s4.266667-46.933333-17.066666-59.733334c-21.333333-12.8-46.933333-4.266667-59.733334 17.066667z m-554.666666-320c-12.8 21.333333-4.266667 46.933333 17.066666 59.733333 21.333333 12.8 46.933333 4.266667 59.733334-17.066666 12.8-21.333333 4.266667-46.933333-17.066667-59.733334s-46.933333-4.266667-59.733333 17.066667z m76.8 320c-12.8-21.333333-38.4-29.866667-59.733334-17.066667-21.333333 12.8-25.6 38.4-17.066666 59.733334 12.8 17.066667 38.4 25.6 59.733333 12.8 21.333333-12.8 25.6-38.4 17.066667-55.466667z m554.666666-320c-12.8-21.333333-38.4-25.6-59.733333-17.066667-21.333333 12.8-25.6 38.4-17.066667 59.733334s38.4 25.6 59.733334 17.066666c21.333333-17.066667 25.6-42.666667 17.066666-59.733333z"  horiz-adv-x="1024" />

    
    <glyph glyph-name="cangku_daozhan" unicode="&#60559;" d="M674.133333 128H853.333333v-85.333333h-179.2l46.933334-46.933334-59.733334-59.733333L512 85.333333l149.333333 149.333334 59.733334-59.733334-46.933334-46.933333z m179.2 85.333333h-85.333333v136.533334l-256 256-256-256V128h213.333333v-85.333333H170.666667v298.666666H128l384 384 384-384h-42.666667v-128z m-422.4 213.333334h170.666667v-85.333334h-170.666667v85.333334z"  horiz-adv-x="1024" />

    
    <glyph glyph-name="cangku_kucunshuaxin" unicode="&#60560;" d="M725.333333 298.666667z m21.333334 0c59.733333-8.533333 106.666667-64 106.666666-128 0-17.066667-4.266667-29.866667-8.533333-42.666667h8.533333v-85.333333h-106.666666v89.6c12.8 8.533333 21.333333 21.333333 21.333333 38.4s-8.533333 29.866667-21.333333 38.4V298.666667z m-42.666667-256c-59.733333 8.533333-106.666667 64-106.666667 128 0 17.066667 4.266667 29.866667 8.533334 42.666666H597.333333v85.333334h106.666667v-89.6c-12.8-8.533333-21.333333-21.333333-21.333333-38.4s8.533333-29.866667 21.333333-38.4V42.666667z m149.333333 238.933333c-21.333333 25.6-51.2 42.666667-85.333333 51.2v12.8l-256 256-256-256V128h302.933333c8.533333-34.133333 25.6-64 51.2-85.333333H170.666667v298.666666H128l384 384 384-384h-42.666667v-59.733333z"  horiz-adv-x="1024" />

    
    <glyph glyph-name="guanliyuanrenzheng" unicode="&#60121;" d="M755.2 115.2L896 256l59.733333-59.733333-200.533333-200.533334-119.466667 119.466667 59.733334 59.733333 59.733333-59.733333zM597.333333 128v-85.333333H256v170.666666h4.266667l85.333333 85.333334h375.466667l85.333333-85.333334h-426.666667l-38.4-38.4V128h256z m213.333334 81.066667z m-85.333334 324.266666c0-106.666667-85.333333-192-192-192S341.333333 426.666667 341.333333 533.333333 426.666667 725.333333 533.333333 725.333333 725.333333 640 725.333333 533.333333z m-85.333333 0C640 593.066667 593.066667 640 533.333333 640S426.666667 593.066667 426.666667 533.333333s46.933333-106.666667 106.666666-106.666666S640 473.6 640 533.333333z"  horiz-adv-x="1024" />

    
    <glyph glyph-name="jinzhidengji" unicode="&#60122;" d="M533.333333 0H256V725.333333h183.466667c12.8 25.6 42.666667 42.666667 72.533333 42.666667s59.733333-17.066667 72.533333-42.666667H768v-490.666666c-25.6 12.8-55.466667 21.333333-85.333333 21.333333V640H341.333333v-554.666667h170.666667c0-29.866667 8.533333-59.733333 21.333333-85.333333zM426.666667 640h170.666666v-42.666667h-170.666666V640z m0-170.666667h170.666666v-85.333333h-170.666666v85.333333z m0-128h170.666666v-85.333333h-170.666666v85.333333z m256-384c-72.533333 0-128 55.466667-128 128s55.466667 128 128 128 128-55.466667 128-128-55.466667-128-128-128z m-64 162.133334v-64h128v64h-128z"  horiz-adv-x="1024" />

    
    <glyph glyph-name="dianbiao" unicode="&#60123;" d="M533.333333 469.333333h119.466667l-213.333333-170.666666 38.4 106.666666H396.8l149.333333 128-12.8-64z m12.8-260.266666c51.2-4.266667 102.4-8.533333 153.6-17.066667L810.666667 499.2C708.266667 537.6 614.4 554.666667 503.466667 554.666667s-213.333333-17.066667-315.733334-55.466667l115.2-307.2c51.2 8.533333 102.4 17.066667 153.6 17.066667l46.933334 89.6 42.666666-89.6zM503.466667 640c149.333333 0 290.133333-29.866667 418.133333-85.333333l-166.4-452.266667c-81.066667 21.333333-166.4 29.866667-251.733333 29.866667s-170.666667-8.533333-251.733334-29.866667L85.333333 554.666667c128 55.466667 268.8 85.333333 418.133334 85.333333z"  horiz-adv-x="1024" />

    
    <glyph glyph-name="guanliyuansousuo" unicode="&#60124;" d="M896 345.6l64-64-46.933333-46.933333-64 64c-38.4-21.333333-89.6-12.8-123.733334 17.066666-42.666667 42.666667-42.666667 110.933333 0 149.333334s110.933333 42.666667 149.333334 0c38.4-29.866667 42.666667-81.066667 21.333333-119.466667z m-256-170.666667l-38.4 38.4H294.4l-38.4-38.4V128h384v46.933333z m85.333333 38.4v-170.666666H170.666667v170.666666h4.266666l85.333334 85.333334h375.466666l89.6-85.333334z m-85.333333 320c0-106.666667-85.333333-192-192-192S256 426.666667 256 533.333333 341.333333 725.333333 448 725.333333 640 640 640 533.333333z m-85.333333 0C554.666667 593.066667 507.733333 640 448 640S341.333333 593.066667 341.333333 533.333333 388.266667 426.666667 448 426.666667 554.666667 473.6 554.666667 533.333333z m217.6-170.666666c17.066667-17.066667 42.666667-17.066667 59.733333 0s17.066667 42.666667 0 59.733333c-17.066667 17.066667-42.666667 17.066667-59.733333 0-17.066667-17.066667-17.066667-42.666667 0-59.733333z"  horiz-adv-x="1024" />

    
    <glyph glyph-name="kuaisugongzuoliu" unicode="&#60125;" d="M840.533333 285.866667c-8.533333 8.533333-17.066667 17.066667-25.6 21.333333-17.066667 8.533333-34.133333 12.8-55.466666 12.8 4.266667 21.333333 8.533333 42.666667 8.533333 64s-4.266667 42.666667-8.533333 64c17.066667-4.266667 38.4 0 55.466666 12.8 8.533333 4.266667 17.066667 12.8 25.6 21.333333 8.533333-29.866667 12.8-64 12.8-98.133333s-4.266667-68.266667-12.8-98.133333z m-81.066666-136.533334c-46.933333-46.933333-102.4-81.066667-170.666667-98.133333 4.266667 8.533333 8.533333 21.333333 8.533333 34.133333 0 21.333333-8.533333 38.4-17.066666 51.2 42.666667 12.8 81.066667 34.133333 110.933333 64 8.533333-17.066667 21.333333-29.866667 34.133333-42.666666 12.8-4.266667 25.6-8.533333 34.133334-8.533334zM183.466667 482.133333c8.533333-8.533333 17.066667-17.066667 25.6-21.333333 17.066667-8.533333 34.133333-12.8 55.466666-12.8-4.266667-21.333333-8.533333-42.666667-8.533333-64s4.266667-42.666667 8.533333-64c-17.066667 4.266667-38.4 0-55.466666-12.8-8.533333-4.266667-17.066667-12.8-25.6-21.333333-8.533333 29.866667-12.8 64-12.8 98.133333s4.266667 68.266667 12.8 98.133333z m81.066666 136.533334c46.933333 46.933333 102.4 81.066667 170.666667 98.133333-4.266667-12.8-8.533333-21.333333-8.533333-34.133333 0-21.333333 8.533333-38.4 17.066666-51.2-42.666667-12.8-81.066667-34.133333-110.933333-64-8.533333 17.066667-21.333333 29.866667-38.4 38.4-8.533333 8.533333-21.333333 12.8-29.866667 12.8z m0-469.333334c12.8 0 21.333333 4.266667 34.133334 12.8 17.066667 8.533333 29.866667 25.6 34.133333 42.666667 29.866667-29.866667 68.266667-51.2 110.933333-64-8.533333-17.066667-17.066667-34.133333-17.066666-55.466667 0-12.8 4.266667-21.333333 8.533333-34.133333-68.266667 17.066667-128 51.2-170.666667 98.133333z m494.933334 469.333334c-12.8 0-21.333333-4.266667-34.133334-12.8-17.066667-8.533333-29.866667-25.6-34.133333-42.666667-29.866667 29.866667-68.266667 51.2-110.933333 64 8.533333 17.066667 17.066667 34.133333 17.066666 55.466667 0 12.8-4.266667 21.333333-8.533333 34.133333 68.266667-17.066667 128-51.2 170.666667-98.133333zM512 640c-25.6 0-42.666667 17.066667-42.666667 42.666667s17.066667 42.666667 42.666667 42.666666 42.666667-17.066667 42.666667-42.666666-17.066667-42.666667-42.666667-42.666667z m0-597.333333c-25.6 0-42.666667 17.066667-42.666667 42.666666s17.066667 42.666667 42.666667 42.666667 42.666667-17.066667 42.666667-42.666667-17.066667-42.666667-42.666667-42.666666z m221.866667 469.333333c-12.8 21.333333-4.266667 46.933333 17.066666 59.733333 17.066667 8.533333 46.933333 4.266667 55.466667-17.066666s4.266667-46.933333-17.066667-59.733334c-17.066667-8.533333-42.666667-4.266667-55.466666 17.066667zM217.6 213.33333300000004c-12.8 21.333333-4.266667 46.933333 17.066667 59.733334 21.333333 12.8 46.933333 4.266667 59.733333-17.066667 12.8-21.333333 4.266667-46.933333-17.066667-59.733333s-51.2-4.266667-59.733333 17.066666z m72.533333 298.666667c-12.8-21.333333-38.4-25.6-59.733333-17.066667-17.066667 12.8-25.6 38.4-12.8 59.733334 8.533333 21.333333 38.4 25.6 55.466667 17.066666 21.333333-12.8 29.866667-38.4 17.066666-59.733333z m516.266667-298.666667c-12.8-21.333333-38.4-25.6-59.733333-17.066666s-25.6 38.4-17.066667 59.733333 38.4 25.6 59.733333 17.066667c21.333333-12.8 29.866667-38.4 17.066667-59.733334z m-281.6 217.6h149.333333l-183.466666-183.466666v81.066666H341.333333L524.8 512v-81.066667z"  horiz-adv-x="1024" />

    
    <glyph glyph-name="saomafuquan" unicode="&#60126;" d="M213.333333 469.333333V682.666667h213.333334v-85.333334H298.666667v-128H213.333333z m0-170.666666h85.333334v-128h128v-85.333334H213.333333v213.333334z m597.333334 170.666666h-85.333334V597.333333h-128V682.666667h213.333334v-213.333334z m0-170.666666v-213.333334h-213.333334v85.333334h128v128h85.333334zM384 341.333333h256v-128H384v128z m213.333333 128c0-46.933333-38.4-85.333333-85.333333-85.333333s-85.333333 38.4-85.333333 85.333333 38.4 85.333333 85.333333 85.333334 85.333333-38.4 85.333333-85.333334z"  horiz-adv-x="1024" />

    
    <glyph glyph-name="fuwuxunhuanguanli" unicode="&#60127;" d="M482.133333 529.066667V554.666667h64v-25.6c29.866667-8.533333 59.733333-21.333333 76.8-46.933334l21.333334 12.8 34.133333-55.466666-21.333333-12.8c4.266667-12.8 8.533333-29.866667 8.533333-46.933334s-4.266667-29.866667-8.533333-46.933333l21.333333-12.8-34.133333-55.466667-21.333334 12.8c-21.333333-21.333333-46.933333-38.4-76.8-46.933333v-17.066667h-64v25.6c-29.866667 8.533333-59.733333 21.333333-76.8 46.933334l-21.333333-12.8-34.133333 55.466666 21.333333 12.8c-4.266667 12.8-8.533333 29.866667-8.533333 46.933334s4.266667 29.866667 8.533333 46.933333l-21.333333 12.8 34.133333 46.933333 21.333333-12.8c21.333333 25.6 46.933333 42.666667 76.8 46.933334z m162.133334-494.933334l-98.133334 98.133334c128 17.066667 221.866667 123.733333 221.866667 251.733333 0 123.733333-89.6 226.133333-204.8 251.733333L473.6 725.333333h38.4c187.733333 0 341.333333-153.6 341.333333-341.333333 0-128-68.266667-234.666667-170.666666-294.4v-93.866667l-38.4 38.4z m-89.6 12.8c-12.8 0-29.866667-4.266667-42.666667-4.266666-187.733333 0-341.333333 153.6-341.333333 341.333333 0 128 68.266667 234.666667 170.666666 294.4V780.8l59.733334-59.733333L482.133333 640C354.133333 622.933333 256 516.266667 256 384c0-128 93.866667-230.4 213.333333-251.733333l85.333334-85.333334z m-38.4 251.733334c46.933333 0 85.333333 38.4 85.333333 85.333333s-38.4 85.333333-85.333333 85.333333-85.333333-38.4-85.333334-85.333333 38.4-85.333333 85.333334-85.333333z m0 42.666666c-25.6 0-42.666667 17.066667-42.666667 42.666667s17.066667 42.666667 42.666667 42.666667 42.666667-17.066667 42.666666-42.666667-21.333333-42.666667-42.666666-42.666667z"  horiz-adv-x="1024" />

    
    <glyph glyph-name="shebeidadian" unicode="&#60562;" d="M768 256h-85.333333v128h213.333333v-128h-85.333333v-128h-42.666667v128z m-213.333333 170.666667v-128H128v128h426.666667z m0-298.666667H128v128h426.666667v-128z m341.333333 341.333333H128V597.333333h768v-128zM213.333333 554.666667v-42.666667h42.666667V554.666667H213.333333z m85.333334 0v-42.666667h42.666666V554.666667H298.666667z m-85.333334-170.666667v-42.666667h42.666667v42.666667H213.333333z m85.333334 0v-42.666667h42.666666v42.666667H298.666667z m-85.333334-170.666667v-42.666666h42.666667v42.666666H213.333333z m85.333334 0v-42.666666h42.666666v42.666666H298.666667z m384-42.666666h42.666666v-42.666667h-42.666666v42.666667z m-85.333334 0h42.666667v-42.666667h-42.666667v42.666667z"  horiz-adv-x="1024" />

    
    <glyph glyph-name="shuibiao" unicode="&#60128;" d="M810.666667 341.333333h-42.666667v42.666667h42.666667c-4.266667 59.733333-29.866667 115.2-68.266667 162.133333l-8.533333-8.533333-29.866667 29.866667 8.533333 8.533333c-42.666667 38.4-98.133333 59.733333-157.866666 64v-42.666667h-42.666667V640c-59.733333-4.266667-115.2-29.866667-157.866667-64l4.266667-4.266667-29.866667-34.133333-4.266666 4.266667c-38.4-42.666667-64-98.133333-68.266667-157.866667h42.666667v-42.666667H256c4.266667-59.733333 29.866667-115.2 64-157.866666l8.533333 8.533333 29.866667-29.866667-8.533333-8.533333c42.666667-38.4 98.133333-64 162.133333-68.266667v42.666667h42.666667v-42.666667c59.733333 4.266667 115.2 29.866667 157.866666 64l-8.533333 8.533334 29.866667 29.866666 8.533333-8.533333c38.4 46.933333 64 102.4 68.266667 162.133333z m-277.333334-341.333333C332.8 0 170.666667 162.133333 170.666667 362.666667S332.8 725.333333 533.333333 725.333333 896 563.2 896 362.666667 733.866667 0 533.333333 0z m0 554.666667l85.333334-192h-170.666667l85.333333 192z"  horiz-adv-x="1024" />

    
    <glyph glyph-name="shebeisousuo" unicode="&#60129;" d="M810.666667 260.266667l64-64-46.933334-46.933334-64 64c-38.4-21.333333-89.6-12.8-123.733333 17.066667-42.666667 42.666667-42.666667 110.933333 0 149.333333s110.933333 42.666667 149.333333 0c38.4-29.866667 42.666667-81.066667 21.333334-119.466666zM554.666667 426.666667v-128H128v128h426.666667z m0-298.666667H128v128h426.666667v-128z m341.333333 341.333333H128V597.333333h768v-128zM213.333333 554.666667v-42.666667h42.666667V554.666667H213.333333z m85.333334 0v-42.666667h42.666666V554.666667H298.666667z m-85.333334-170.666667v-42.666667h42.666667v42.666667H213.333333z m85.333334 0v-42.666667h42.666666v42.666667H298.666667z m-85.333334-170.666667v-42.666666h42.666667v42.666666H213.333333z m85.333334 0v-42.666666h42.666666v42.666666H298.666667z m388.266666 64c17.066667-17.066667 42.666667-17.066667 59.733334 0s17.066667 42.666667 0 59.733334c-17.066667 17.066667-42.666667 17.066667-59.733334 0-17.066667-17.066667-17.066667-42.666667 0-59.733334z"  horiz-adv-x="1024" />

    
    <glyph glyph-name="shebeijiance" unicode="&#60130;" d="M785.066667 179.2L725.333333 243.2c25.6 42.666667 42.666667 89.6 42.666667 140.8 0 140.8-115.2 256-256 256s-256-115.2-256-256 115.2-256 256-256c55.466667 0 106.666667 17.066667 145.066667 46.933333l59.733333-59.733333c-55.466667-42.666667-128-72.533333-209.066667-72.533333-187.733333 0-341.333333 153.6-341.333333 341.333333s153.6 341.333333 341.333333 341.333333 341.333333-153.6 341.333334-341.333333c4.266667-76.8-21.333333-145.066667-64-204.8zM512 170.666667c-119.466667 0-213.333333 93.866667-213.333333 213.333333s93.866667 213.333333 213.333333 213.333333 213.333333-93.866667 213.333333-213.333333-93.866667-213.333333-213.333333-213.333333z m0 85.333333c72.533333 0 128 55.466667 128 128s-55.466667 128-128 128-128-55.466667-128-128 55.466667-128 128-128z m0 85.333333c-38.4 0-42.666667 29.866667-42.666667 42.666667 0 8.533333 12.8 42.666667 42.666667 106.666667 29.866667-64 42.666667-98.133333 42.666667-106.666667 0-12.8-4.266667-42.666667-42.666667-42.666667z"  horiz-adv-x="1024" />

    
    <glyph glyph-name="shuiweichuanganqi" unicode="&#60131;" d="M640 238.933333c17.066667 12.8 34.133333 17.066667 55.466667 17.066667 25.6 0 46.933333-8.533333 68.266666-21.333333 4.266667 0 8.533333-4.266667 8.533334-8.533334 12.8-8.533333 17.066667-12.8 29.866666-12.8 17.066667-4.266667 38.4 4.266667 68.266667 25.6l55.466667-68.266666c-46.933333-38.4-93.866667-51.2-136.533334-42.666667-21.333333 4.266667-38.4 12.8-59.733333 25.6 0 0-8.533333 4.266667-8.533333 8.533333-17.066667 8.533333-17.066667 8.533333-25.6 8.533334-4.266667 0-8.533333 0-17.066667-8.533334h-4.266667c-12.8-8.533333-21.333333-17.066667-34.133333-21.333333V85.333333H384v46.933334c-8.533333-4.266667-17.066667-4.266667-29.866667-4.266667-25.6 0-46.933333 8.533333-68.266666 21.333333-4.266667 0-8.533333 4.266667-8.533334 8.533334-12.8 8.533333-17.066667 12.8-29.866666 12.8-17.066667 4.266667-38.4-4.266667-68.266667-25.6L128 213.333333c46.933333 38.4 93.866667 51.2 136.533333 42.666667 21.333333-4.266667 38.4-12.8 59.733334-25.6 0 0 8.533333-4.266667 8.533333-8.533333 12.8-8.533333 17.066667-8.533333 21.333333-8.533334 4.266667 0 8.533333 0 17.066667 8.533334h4.266667c4.266667 0 4.266667 4.266667 8.533333 4.266666V298.666667h-29.866667c-25.6 0-46.933333 8.533333-68.266666 21.333333-4.266667 0-8.533333 4.266667-8.533334 8.533333-12.8 8.533333-17.066667 12.8-29.866666 12.8-17.066667 4.266667-38.4-4.266667-68.266667-25.6L128 384c46.933333 38.4 93.866667 51.2 136.533333 42.666667 21.333333-4.266667 38.4-12.8 59.733334-25.6 0 0 8.533333-4.266667 8.533333-8.533334 12.8-8.533333 17.066667-8.533333 21.333333-8.533333 4.266667 0 8.533333 0 17.066667 8.533333h4.266667c4.266667 0 4.266667 4.266667 8.533333 4.266667V473.6c-8.533333-4.266667-17.066667-4.266667-29.866667-4.266667-25.6 0-46.933333 8.533333-68.266666 21.333334-4.266667 0-8.533333 4.266667-8.533334 8.533333-12.8 8.533333-17.066667 12.8-29.866666 12.8-17.066667 4.266667-38.4-4.266667-64-25.6L128 554.666667c46.933333 38.4 93.866667 51.2 136.533333 42.666666 21.333333-4.266667 38.4-12.8 59.733334-25.6 0 0 8.533333-4.266667 8.533333-8.533333 12.8-8.533333 17.066667-8.533333 21.333333-8.533333 4.266667 0 8.533333 0 17.066667 8.533333h4.266667c4.266667 0 4.266667 4.266667 8.533333 4.266667V682.666667h256v-102.4c17.066667 12.8 34.133333 17.066667 55.466667 17.066666 25.6 0 46.933333-8.533333 68.266666-21.333333 4.266667 0 8.533333-4.266667 8.533334-8.533333 12.8-8.533333 21.333333-12.8 29.866666-12.8 17.066667-4.266667 38.4 4.266667 68.266667 25.6L925.866667 512c-46.933333-38.4-93.866667-51.2-136.533334-42.666667-21.333333 4.266667-38.4 12.8-59.733333 25.6 0 0-8.533333 4.266667-8.533333 8.533334-17.066667 8.533333-17.066667 8.533333-25.6 8.533333-4.266667 0-8.533333 0-17.066667-8.533333h-4.266667c-12.8-8.533333-21.333333-17.066667-34.133333-21.333334v-68.266666c17.066667 12.8 34.133333 17.066667 55.466667 17.066666 25.6 0 46.933333-8.533333 68.266666-21.333333 4.266667 0 8.533333-4.266667 8.533334-8.533333 12.8-8.533333 17.066667-12.8 29.866666-12.8 17.066667-4.266667 38.4 4.266667 68.266667 25.6l55.466667-68.266667c-46.933333-38.4-93.866667-51.2-136.533334-42.666667-21.333333 4.266667-38.4 12.8-59.733333 25.6 0 0-8.533333 4.266667-8.533333 8.533334-17.066667 4.266667-17.066667 4.266667-25.6 4.266666-4.266667 0-8.533333 0-17.066667-8.533333h-4.266667c-12.8-8.533333-21.333333-17.066667-34.133333-21.333333v-72.533334zM554.666667 597.333333h-85.333334v-42.666666h42.666667v-85.333334h-42.666667v-42.666666h42.666667v-85.333334h-42.666667v-42.666666h42.666667v-85.333334h-42.666667v-42.666666h85.333334V597.333333z"  horiz-adv-x="1024" />

    
    <glyph glyph-name="xunjianweixiu" unicode="&#60563;" d="M328.533333 128l-55.466666-98.133333L170.666667 132.26666699999998l102.4 55.466666L379.733333 298.66666699999996l59.733334-59.733334L328.533333 128z m332.8 597.333333l209.066667-209.066666-341.333333-345.6-209.066667 209.066666 341.333333 345.6z m0-119.466666L439.466667 384l29.866666-29.866667 221.866667 221.866667-29.866667 29.866667z m59.733334-59.733334l-221.866667-221.866666 29.866667-29.866667 221.866666 221.866667-29.866666 29.866666z"  horiz-adv-x="1024" />

    
    <glyph glyph-name="yemianliu" unicode="&#60132;" d="M426.666667 256H341.333333V512h341.333334v-256h-256z m0 85.333333h170.666666v85.333334h-170.666666v-85.333334z m332.8-192C699.733333 85.333333 610.133333 42.666667 512 42.666667s-187.733333 42.666667-247.466667 106.666666c12.8 0 21.333333 4.266667 34.133334 12.8 17.066667 8.533333 29.866667 25.6 34.133333 42.666667C379.733333 157.866667 443.733333 128 512 128s132.266667 29.866667 179.2 72.533333c8.533333-17.066667 21.333333-29.866667 34.133333-42.666666 12.8-4.266667 25.6-8.533333 34.133334-8.533334z m81.066666 136.533334c-8.533333 8.533333-17.066667 17.066667-25.6 21.333333-17.066667 8.533333-34.133333 12.8-55.466666 12.8 4.266667 21.333333 8.533333 42.666667 8.533333 64 0 119.466667-81.066667 217.6-187.733333 247.466667 8.533333 12.8 17.066667 29.866667 17.066666 51.2 0 12.8-4.266667 21.333333-8.533333 34.133333 153.6-34.133333 264.533333-170.666667 264.533333-332.8 0-34.133333-4.266667-68.266667-12.8-98.133333z m-657.066666 0c-8.533333 29.866667-12.8 64-12.8 98.133333 0 162.133333 110.933333 298.666667 264.533333 332.8-4.266667-12.8-8.533333-21.333333-8.533333-34.133333 0-21.333333 8.533333-38.4 17.066666-51.2C337.066667 601.6 256 503.466667 256 384c0-21.333333 4.266667-42.666667 8.533333-64-17.066667 4.266667-38.4 0-55.466666-12.8-8.533333-4.266667-17.066667-12.8-25.6-21.333333zM512 640c-25.6 0-42.666667 17.066667-42.666667 42.666667s17.066667 42.666667 42.666667 42.666666 42.666667-17.066667 42.666667-42.666666-17.066667-42.666667-42.666667-42.666667zM217.6 213.333333c-12.8 21.333333-4.266667 46.933333 17.066667 59.733334 21.333333 12.8 46.933333 4.266667 59.733333-17.066667 12.8-21.333333 4.266667-46.933333-17.066667-59.733333s-51.2-4.266667-59.733333 17.066666z m588.8 0c-12.8-21.333333-38.4-25.6-59.733333-17.066666s-25.6 38.4-17.066667 59.733333 38.4 25.6 59.733333 17.066667c21.333333-12.8 29.866667-38.4 17.066667-59.733334z"  horiz-adv-x="1024" />

    
    <glyph glyph-name="yichangshangbao" unicode="&#60557;" d="M554.666667 213.333333v-42.666666h85.333333v-85.333334H384v85.333334h85.333333v42.666666H170.666667V682.666667h682.666666v-469.333334h-298.666666z m0 85.333334h213.333333V597.333333H256v-298.666666h298.666667z m0 256v-128h-85.333334V554.666667h85.333334z m0-149.333334V341.333333h-85.333334v64h85.333334z"  horiz-adv-x="1024" />

    
    <glyph glyph-name="zhongkong" unicode="&#60564;" d="M477.866667 529.066667V554.666667h64v-25.6c8.533333-4.266667 12.8-8.533333 21.333333-12.8l25.6 12.8 34.133333-55.466667-25.6-12.8v-25.6l25.6-12.8-34.133333-55.466667-25.6 12.8c-4.266667-4.266667-12.8-8.533333-21.333333-12.8v-25.6h-64v25.6c-8.533333 4.266667-12.8 8.533333-21.333334 12.8l-25.6-12.8-34.133333 55.466667 25.6 12.8v12.8 12.8l-17.066667 12.8 34.133334 55.466667 25.6-12.8c0 4.266667 8.533333 8.533333 12.8 12.8zM554.666667 213.333333v-42.666666h85.333333v-85.333334H384v85.333334h85.333333v42.666666H170.666667V682.666667h682.666666v-469.333334h-298.666666z m0 85.333334h213.333333V597.333333H256v-298.666666h298.666667z m-42.666667 128c12.8 0 21.333333 8.533333 21.333333 21.333333s-8.533333 21.333333-21.333333 21.333333-21.333333-8.533333-21.333333-21.333333 8.533333-21.333333 21.333333-21.333333z"  horiz-adv-x="1024" />

    
    <glyph glyph-name="weixiufuwu" unicode="&#60133;" d="M729.6 584.533333l59.733333 59.733334c85.333333-102.4 81.066667-251.733333-12.8-345.6-68.266667-68.266667-162.133333-89.6-247.466666-68.266667l-192-192-59.733334 59.733333-59.733333 59.733334-59.733333 59.733333 192 192c-21.333333 85.333333 0 179.2 68.266666 247.466667 93.866667 93.866667 247.466667 98.133333 345.6 12.8l-59.733333-59.733334L640 554.666667l29.866667-29.866667 59.733333 59.733333z m38.4-89.6l-34.133333-34.133333-59.733334-59.733333L520.533333 554.666667l59.733334 59.733333 34.133333 34.133333c-46.933333 4.266667-102.4-12.8-136.533333-51.2-68.266667-68.266667-68.266667-174.933333 0-243.2s174.933333-68.266667 243.2 0c34.133333 42.666667 51.2 93.866667 46.933333 140.8zM277.333333 217.6l59.733334-59.733333 110.933333 110.933333c-12.8 8.533333-21.333333 17.066667-34.133333 25.6s-21.333333 21.333333-25.6 34.133333l-110.933334-110.933333z"  horiz-adv-x="1024" />

    
    <glyph glyph-name="wenshiduchuanganqi" unicode="&#60134;" d="M349.866667 277.333333c-8.533333 4.266667-17.066667 8.533333-29.866667 8.533334-34.133333-4.266667-64-29.866667-64-68.266667 0-34.133333 29.866667-64 64-64S384 183.466667 384 217.6c0 8.533333-4.266667 17.066667-4.266667 25.6l358.4 358.4c8.533333 8.533333 8.533333 21.333333 0 29.866667-8.533333 8.533333-21.333333 8.533333-29.866666 0l-358.4-354.133334z m-34.133334 89.6L640 691.2c42.666667 42.666667 110.933333 42.666667 149.333333 0s42.666667-110.933333 0-149.333333L469.333333 217.6c0-81.066667-68.266667-149.333333-149.333333-149.333333S170.666667 136.533333 170.666667 217.6c0 85.333333 64 149.333333 145.066666 149.333333z m430.933334-341.333333c-59.733333 0-106.666667 51.2-106.666667 110.933333 0 38.4 34.133333 115.2 106.666667 230.4 72.533333-115.2 106.666667-192 106.666666-230.4 0-59.733333-46.933333-110.933333-106.666666-110.933333z m0 89.6c12.8 0 21.333333 17.066667 21.333333 42.666667 0 12.8-8.533333 34.133333-21.333333 81.066666-12.8-42.666667-21.333333-64-21.333334-81.066666 0-25.6 8.533333-42.666667 21.333334-42.666667z"  horiz-adv-x="1024" />

    
    <glyph glyph-name="duoxuanxuanzhong" unicode="&#60135;" d="M490.666667 388.266667L597.333333 494.933333l59.733334-59.733333-166.4-166.4-119.466667 119.466667 59.733333 59.733333 59.733334-59.733333zM213.333333 682.666667h597.333334v-597.333334H213.333333V682.666667z m85.333334-85.333334v-426.666666h426.666666V597.333333H298.666667z"  horiz-adv-x="1024" />

    
    <glyph glyph-name="bofang" unicode="&#60136;" d="M512 42.666667c-187.733333 0-341.333333 153.6-341.333333 341.333333s153.6 341.333333 341.333333 341.333333 341.333333-153.6 341.333333-341.333333-153.6-341.333333-341.333333-341.333333z m0 85.333333c140.8 0 256 115.2 256 256s-115.2 256-256 256-256-115.2-256-256 115.2-256 256-256z m128 256l-213.333333-128V512l213.333333-128z"  horiz-adv-x="1024" />

    
    <glyph glyph-name="duibi" unicode="&#60137;" d="M896 640v-512H128V640h768zM213.333333 554.666667v-341.333334h597.333334V554.666667H213.333333z m307.2-42.666667h-68.266666l-34.133334-179.2L388.266667 512H320l68.266667-256h64l68.266666 256z m183.466667-183.466667c0 42.666667-12.8 55.466667-51.2 68.266667l-38.4 12.8c-12.8 8.533333-17.066667 17.066667-17.066667 29.866667 0 8.533333 0 17.066667 4.266667 21.333333 4.266667 4.266667 8.533333 8.533333 17.066667 8.533333s12.8-4.266667 17.066666-8.533333c4.266667-4.266667 4.266667-12.8 4.266667-21.333333h59.733333c0 25.6-8.533333 42.666667-21.333333 55.466666-12.8 12.8-34.133333 17.066667-59.733333 17.066667-21.333333 0-42.666667-4.266667-55.466667-17.066667-17.066667-12.8-25.6-34.133333-25.6-55.466666 0-38.4 12.8-55.466667 42.666667-64l38.4-12.8c21.333333-8.533333 25.6-12.8 25.6-29.866667 0-8.533333 0-17.066667-4.266667-21.333333-4.266667-4.266667-8.533333-8.533333-17.066667-8.533334s-17.066667 4.266667-17.066666 4.266667c-4.266667 4.266667-4.266667 12.8-4.266667 21.333333h-59.733333c0-25.6 4.266667-42.666667 21.333333-55.466666 12.8-12.8 34.133333-17.066667 64-17.066667s51.2 8.533333 64 17.066667c8.533333 17.066667 12.8 29.866667 12.8 55.466666z"  horiz-adv-x="1024" />

    
    <glyph glyph-name="huojianjiasu" unicode="&#60138;" d="M452.266667 81.066667l-209.066667 209.066666-89.6 29.866667L302.933333 469.333333l46.933334-17.066666L571.733333 682.666667h273.066667v-273.066667l-221.866667-221.866667 17.066667-46.933333-149.333333-149.333333-38.4 89.6z m-166.4 106.666666L345.6 128 256 38.4l-59.733333 59.733333 89.6 89.6z m46.933333 136.533334l149.333333-149.333334 285.866667 285.866667V610.133333h-149.333333l-285.866667-285.866666z m273.066667 119.466666c-25.6 25.6-25.6 64 0 89.6 25.6 25.6 64 25.6 89.6 0 25.6-25.6 25.6-64 0-89.6-25.6-21.333333-68.266667-21.333333-89.6 0z"  horiz-adv-x="1024" />

    
    <glyph glyph-name="gouwudai" unicode="&#60139;" d="M768 512h-128v-42.666667h-85.333333V512h-85.333334v-42.666667H384v-42.666666 85.333333H256v-341.333333h512V512z m85.333333 0v-426.666667H170.666667V597.333333h213.333333c0 72.533333 55.466667 128 128 128s128-55.466667 128-128h213.333333v-85.333333z m-384 85.333333h85.333334c0 25.6-17.066667 42.666667-42.666667 42.666667s-42.666667-17.066667-42.666667-42.666667z"  horiz-adv-x="1024" />

    
    <glyph glyph-name="gouwu" unicode="&#60140;" d="M384 682.666667h426.666667v-597.333334H213.333333V682.666667h170.666667z m298.666667-85.333334H384v-42.666666h85.333333v-42.666667c0-25.6 17.066667-42.666667 42.666667-42.666667s42.666667 17.066667 42.666667 42.666667V554.666667h85.333333v-42.666667c0-72.533333-55.466667-128-128-128s-128 55.466667-128 128V597.333333H298.666667v-426.666666h426.666666V597.333333h-42.666666z"  horiz-adv-x="1024" />

    
    <glyph glyph-name="danxuanweixuanzhong" unicode="&#60141;" d="M533.333333 42.666667c-196.266667 0-354.133333 153.6-354.133333 341.333333s157.866667 341.333333 354.133333 341.333333 354.133333-153.6 354.133334-341.333333-157.866667-341.333333-354.133334-341.333333z m0 85.333333c149.333333 0 268.8 115.2 268.8 256S682.666667 640 533.333333 640s-268.8-115.2-268.8-256 123.733333-256 268.8-256z"  horiz-adv-x="1024" />

    
    <glyph glyph-name="danxuanxuanzhong" unicode="&#60142;" d="M512 42.666667c-187.733333 0-341.333333 153.6-341.333333 341.333333s153.6 341.333333 341.333333 341.333333 341.333333-153.6 341.333333-341.333333-153.6-341.333333-341.333333-341.333333z m0 85.333333c140.8 0 256 115.2 256 256s-115.2 256-256 256-256-115.2-256-256 115.2-256 256-256z m0 170.666667c-46.933333 0-85.333333 38.4-85.333333 85.333333s38.4 85.333333 85.333333 85.333333 85.333333-38.4 85.333333-85.333333-38.4-85.333333-85.333333-85.333333z"  horiz-adv-x="1024" />

    
    <glyph glyph-name="jiqiren" unicode="&#60143;" d="M853.333333 256v-85.333333H170.666667v85.333333H85.333333v213.333333h85.333334V554.666667h682.666666v-85.333334h85.333334v-213.333333h-85.333334z m-85.333333 0v213.333333H256v-213.333333h512zM554.666667 682.666667v-85.333334h-85.333334V682.666667h85.333334z m-149.333334-384c-34.133333 0-64 29.866667-64 64S371.2 426.666667 405.333333 426.666667s64-29.866667 64-64-29.866667-64-64-64z m213.333334 0c-34.133333 0-64 29.866667-64 64s29.866667 64 64 64 64-29.866667 64-64-29.866667-64-64-64z"  horiz-adv-x="1024" />

    
    <glyph glyph-name="jinxianshibutong" unicode="&#60144;" d="M605.866667 256l-38.4 38.4-46.933334-46.933333 81.066667-81.066667 46.933333 46.933333 85.333334 85.333334-42.666667 42.666666-85.333333-85.333333zM810.666667 640v-554.666667H256L810.666667 640zM213.333333 128V682.666667h554.666667L213.333333 128z m341.333334 469.333333H298.666667v-256l256 256z"  horiz-adv-x="1024" />

    
    <glyph glyph-name="kefu" unicode="&#60145;" d="M554.666667 128v42.666667h85.333333v-42.666667h85.333333v320C725.333333 554.666667 640 640 533.333333 640S341.333333 554.666667 341.333333 448V42.666667H213.333333v256h42.666667v149.333333C256 601.6 379.733333 725.333333 533.333333 725.333333S810.666667 601.6 810.666667 448V298.666667h42.666666v-256h-298.666666v85.333333z"  horiz-adv-x="1024" />

    
    <glyph glyph-name="leida-faxianx" unicode="&#60146;" d="M554.666667 635.733333V597.333333h-85.333334V725.333333h42.666667l42.666667-42.666666v-46.933334c-12.8 4.266667-29.866667 4.266667-42.666667 4.266667V725.333333c187.733333 0 341.333333-153.6 341.333333-341.333333s-153.6-341.333333-341.333333-341.333333-341.333333 153.6-341.333333 341.333333c0 110.933333 51.2 209.066667 136.533333 273.066667 4.266667 4.266667 8.533333 4.266667 12.8 8.533333l243.2-243.2-59.733333-59.733333-192 183.466666C277.333333 503.466667 256 443.733333 256 384c0-140.8 115.2-256 256-256s256 115.2 256 256c0 128-93.866667 230.4-213.333333 251.733333z"  horiz-adv-x="1024" />

    
    <glyph glyph-name="lianjie" unicode="&#60147;" d="M546.133333 375.466667l59.733334 59.733333 21.333333-21.333333 115.2 115.2-119.466667 119.466666-115.2-115.2 4.266667-8.533333-59.733333-59.733333L384 537.6 614.4 768l243.2-243.2-230.4-230.4-81.066667 81.066667z m-115.2 68.266666L371.2 384l-8.533333 8.533333-115.2-115.2 119.466666-119.466666 115.2 115.2-21.333333 21.333333 59.733333 59.733333 81.066667-81.066666L371.2 42.666667 128 281.6 358.4 512l72.533333-68.266667zM571.733333 554.666667l59.733334-59.733334-230.4-230.4L341.333333 324.266667 571.733333 554.666667z"  horiz-adv-x="1024" />

    
    <glyph glyph-name="duoxuanweixuanzhong" unicode="&#60148;" d="M213.333333 682.666667h597.333334v-597.333334H213.333333V682.666667z m85.333334-85.333334v-426.666666h426.666666V597.333333H298.666667z"  horiz-adv-x="1024" />

    
    <glyph glyph-name="liangliangduibi" unicode="&#60149;" d="M426.666667 128h341.333333v341.333333h-42.666667v-298.666666h-298.666666v-42.666667z m0-85.333333H341.333333v128H213.333333V682.666667h512v-128h128v-512H426.666667z m213.333333 426.666666h-213.333333v-213.333333h213.333333v213.333333z m0 85.333334V597.333333H298.666667v-341.333333h42.666666V554.666667h298.666667z"  horiz-adv-x="1024" />

    
    <glyph glyph-name="quxiaolianjie" unicode="&#60150;" d="M524.8 388.266667l-59.733333 59.733333L571.733333 554.666667l59.733334-59.733334-106.666667-106.666666z m-17.066667-17.066667l-106.666666-106.666667L341.333333 324.266667l106.666667 106.666666 59.733333-59.733333z m38.4 4.266667l59.733334 59.733333 21.333333-21.333333 115.2 115.2-119.466667 119.466666-115.2-115.2 4.266667-8.533333-59.733333-59.733333L384 537.6 614.4 768l243.2-243.2-230.4-230.4-81.066667 81.066667z m-115.2 68.266666L371.2 384l-8.533333 8.533333-115.2-115.2 119.466666-119.466666 115.2 115.2-21.333333 21.333333 59.733333 59.733333 81.066667-81.066666L371.2 42.666667 128 281.6 358.4 512l72.533333-68.266667z"  horiz-adv-x="1024" />

    
    <glyph glyph-name="liwu" unicode="&#60151;" d="M554.666667 512v-128h170.666666V512h-170.666666z m-85.333334 0H298.666667v-128h170.666666V512z m85.333334-341.333333h170.666666v128h-170.666666v-128z m-85.333334 0v128H298.666667v-128h170.666666z m123.733334 426.666666H810.666667v-512H213.333333V597.333333h217.6L362.666667 665.6 422.4 725.333333 512 635.733333 597.333333 725.333333l59.733334-59.733333L593.066667 597.333333z"  horiz-adv-x="1024" />

    
    <glyph glyph-name="shanguangdeng" unicode="&#60152;" d="M669.866667 426.666667H810.666667L298.666667 0l102.4 341.333333H256l128 384h384l-98.133333-298.666666z m-119.466667-85.333334l98.133333 298.666667h-204.8l-72.533333-213.333333H512l-55.466667-179.2 115.2 93.866666h-21.333333z"  horiz-adv-x="1024" />

    
    <glyph glyph-name="shengyin" unicode="&#60153;" d="M725.333333 597.333333v-426.666666h-85.333333V597.333333h85.333333zM384 597.333333v-426.666666H298.666667V597.333333h85.333333z m-170.666667-128v-170.666666H128v170.666666h85.333333z m682.666667 0v-170.666666h-85.333333v170.666666h85.333333z m-341.333333 256v-682.666666h-85.333334V725.333333h85.333334z"  horiz-adv-x="1024" />

    
    <glyph glyph-name="renlianshibie" unicode="&#60154;" d="M640 341.333333c-4.266667-72.533333-59.733333-128-128-128s-123.733333 55.466667-128 128h256z m-256 4.266667v76.8-76.8zM213.333333 469.333333V682.666667h213.333334v-85.333334H298.666667v-128H213.333333z m0-170.666666h85.333334v-128h128v-85.333334H213.333333v213.333334z m597.333334 170.666666h-85.333334V597.333333h-128V682.666667h213.333334v-213.333334z m0-170.666666v-213.333334h-213.333334v85.333334h128v128h85.333334z m-341.333334 213.333333v-85.333333H384V512h85.333333z m170.666667 0v-85.333333h-85.333333V512h85.333333z"  horiz-adv-x="1024" />

    
    <glyph glyph-name="tingzhi" unicode="&#60155;" d="M512 42.666667c-187.733333 0-341.333333 153.6-341.333333 341.333333s153.6 341.333333 341.333333 341.333333 341.333333-153.6 341.333333-341.333333-153.6-341.333333-341.333333-341.333333z m0 85.333333c140.8 0 256 115.2 256 256s-115.2 256-256 256-256-115.2-256-256 115.2-256 256-256z m-85.333333 341.333333h170.666666v-170.666666h-170.666666v170.666666z"  horiz-adv-x="1024" />

    
    <glyph glyph-name="tanhao" unicode="&#60156;" d="M469.333333 42.666667h85.333334v85.333333h-85.333334v-85.333333z m85.333334 128V725.333333h-85.333334v-554.666666h85.333334z"  horiz-adv-x="1024" />

    
    <glyph glyph-name="wenhao" unicode="&#60157;" d="M469.333333 256v85.333333h42.666667c72.533333 0 128 55.466667 128 128V512c0 72.533333-55.466667 128-128 128S384 584.533333 384 512v-42.666667H298.666667V512c0 119.466667 93.866667 213.333333 213.333333 213.333333s213.333333-93.866667 213.333333-213.333333v-42.666667c0-102.4-72.533333-187.733333-170.666666-209.066666V170.666667h-85.333334v85.333333z m0-128h85.333334v-85.333333h-85.333334v85.333333z"  horiz-adv-x="1024" />

    
    <glyph glyph-name="xinxi" unicode="&#60158;" d="M469.333333 597.333333h85.333334v-469.333333h128v-85.333333H341.333333v85.333333h128V512H384V597.333333h85.333333z m0 128h85.333334v-85.333333h-85.333334V725.333333z"  horiz-adv-x="1024" />

    
    <glyph glyph-name="shounadaohang" unicode="&#60159;" d="M896 128V640H128v-512h768zM213.333333 213.333333V554.666667h597.333334v-341.333334H213.333333z m0 213.333334h597.333334V512H213.333333v-85.333333z"  horiz-adv-x="1024" />

    
    <glyph glyph-name="yinliang" unicode="&#60160;" d="M537.6 750.933333L554.666667 768v-768l-85.333334 85.333333-298.666666 298.666667 64 64 302.933333 302.933333zM469.333333 554.666667l-166.4-170.666667 166.4-170.666667V554.666667z m170.666667 123.733333c145.066667-21.333333 256-145.066667 256-294.4s-110.933333-273.066667-256-294.4v85.333333c98.133333 21.333333 170.666667 106.666667 170.666667 209.066667s-72.533333 187.733333-170.666667 209.066667v85.333333z m0-128c72.533333-17.066667 128-85.333333 128-166.4s-55.466667-145.066667-128-166.4v89.6c25.6 12.8 42.666667 42.666667 42.666667 72.533333s-17.066667 59.733333-42.666667 72.533334V550.4z"  horiz-adv-x="1024" />

    
    <glyph glyph-name="yingwen" unicode="&#60161;" d="M640 341.333333h-42.666667v-128h-85.333333v213.333334h213.333333v-213.333334h-85.333333v128z m-256-42.666666h85.333333v-85.333334H298.666667V554.666667h170.666666v-85.333334H384v-42.666666h85.333333v-85.333334H384v-42.666666zM170.666667 682.666667h682.666666v-597.333334H170.666667V682.666667z m85.333333-85.333334v-426.666666h512V597.333333H256z"  horiz-adv-x="1024" />

    
    <glyph glyph-name="yuyin" unicode="&#60569;" d="M576 132.266667V42.666667h-85.333333v89.6C362.666667 149.333333 264.533333 256 256 384h85.333333c8.533333-93.866667 93.866667-170.666667 192-170.666667s179.2 76.8 192 170.666667h85.333334c-12.8-128-110.933333-234.666667-234.666667-251.733333zM533.333333 768C593.066667 768 640 721.066667 640 661.333333v-256c0-59.733333-46.933333-106.666667-106.666667-106.666666S426.666667 345.6 426.666667 405.333333v256C426.666667 721.066667 473.6 768 533.333333 768z"  horiz-adv-x="1024" />

    
    <glyph glyph-name="yuechi" unicode="&#60162;" d="M418.133333 396.8c-21.333333 34.133333-29.866667 72.533333-29.866666 115.2 0 119.466667 93.866667 213.333333 213.333333 213.333333s213.333333-93.866667 213.333333-213.333333-93.866667-213.333333-213.333333-213.333333c-46.933333 0-85.333333 12.8-123.733333 38.4l-98.133334-98.133334 46.933334-46.933333-59.733334-59.733333-46.933333 46.933333-29.866667-29.866667 46.933334-46.933333L277.333333 42.666667 170.666667 149.333333l247.466666 247.466667zM601.6 640c-72.533333 0-128-55.466667-128-128s55.466667-128 128-128 128 55.466667 128 128-59.733333 128-128 128z"  horiz-adv-x="1024" />

    
    <glyph glyph-name="yunsuancaozuo" unicode="&#60163;" d="M554.666667 503.466667v-34.133334h-85.333334V597.333333h42.666667c119.466667 0 213.333333-93.866667 213.333333-213.333333s-93.866667-213.333333-213.333333-213.333333-213.333333 93.866667-213.333333 213.333333c0 64 25.6 119.466667 72.533333 157.866667l4.266667-4.266667 157.866666-140.8-51.2-51.2L392.533333 426.666667c-4.266667-12.8-8.533333-29.866667-8.533333-42.666667 0-72.533333 55.466667-128 128-128s128 55.466667 128 128c0 55.466667-34.133333 102.4-85.333333 119.466667z m243.2-302.933334l-64 64c21.333333 34.133333 34.133333 76.8 34.133333 119.466667 0 140.8-115.2 256-256 256s-256-115.2-256-256 115.2-256 256-256c59.733333 0 115.2 21.333333 157.866667 55.466667l59.733333-59.733334C669.866667 72.533333 597.333333 42.666667 512 42.666667c-187.733333 0-341.333333 153.6-341.333333 341.333333s153.6 341.333333 341.333333 341.333333 341.333333-153.6 341.333333-341.333333c0-68.266667-21.333333-132.266667-55.466666-183.466667z"  horiz-adv-x="1024" />

    
    <glyph glyph-name="zhediedaohang" unicode="&#60164;" d="M341.333333 213.333333H213.333333V554.666667h128v-341.333334z m85.333334 0V554.666667h384v-341.333334h-384z m469.333333-85.333333V640H128v-512h768z"  horiz-adv-x="1024" />

    
    <glyph glyph-name="zhinanzhen" unicode="&#60165;" d="M558.933333 337.066667l-174.933333-85.333334 85.333333 174.933334 170.666667 81.066666-81.066667-170.666666zM512 42.666667c-187.733333 0-341.333333 153.6-341.333333 341.333333s153.6 341.333333 341.333333 341.333333 341.333333-153.6 341.333333-341.333333-153.6-341.333333-341.333333-341.333333z m0 85.333333c140.8 0 256 115.2 256 256s-115.2 256-256 256-256-115.2-256-256 115.2-256 256-256z"  horiz-adv-x="1024" />

    
    <glyph glyph-name="zhongwen" unicode="&#60166;" d="M554.666667 426.666667v-42.666667h42.666666v42.666667h-42.666666z m-85.333334 0h-42.666666v-42.666667h42.666666v42.666667z m85.333334 85.333333h128v-213.333333h-128v-85.333334h-85.333334v85.333334H341.333333V512h128V554.666667h85.333334v-42.666667z m298.666666 170.666667v-597.333334H170.666667V682.666667h682.666666zM256 597.333333v-426.666666h512V597.333333H256z"  horiz-adv-x="1024" />

    
    <glyph glyph-name="zanting" unicode="&#60167;" d="M512 42.666667c-187.733333 0-341.333333 153.6-341.333333 341.333333s153.6 341.333333 341.333333 341.333333 341.333333-153.6 341.333333-341.333333-153.6-341.333333-341.333333-341.333333z m0 85.333333c140.8 0 256 115.2 256 256s-115.2 256-256 256-256-115.2-256-256 115.2-256 256-256z m-42.666667 341.333333v-170.666666H384v170.666666h85.333333z m170.666667 0v-170.666666h-85.333333v170.666666h85.333333z"  horiz-adv-x="1024" />

    
    <glyph glyph-name="zhuti_yifu" unicode="&#60168;" d="M469.333333 682.666667v-85.333334c0-25.6 17.066667-42.666667 42.666667-42.666666s42.666667 17.066667 42.666667 42.666666V682.666667h298.666666v-298.666667h-42.666666v-298.666667H213.333333v298.666667H170.666667V682.666667h298.666666z m170.666667-85.333334c0-72.533333-55.466667-128-128-128S384 524.8 384 597.333333H256v-128h42.666667v-298.666666h426.666666v298.666666h42.666667V597.333333h-128z"  horiz-adv-x="1024" />

    
    <glyph glyph-name="zhendong" unicode="&#60169;" d="M469.333333 725.333333h85.333334v-85.333333h-85.333334V725.333333z m0-597.333333h85.333334v-85.333333h-85.333334v85.333333z m384 298.666667v-85.333334h-85.333333v85.333334h85.333333zM256 426.666667v-85.333334H170.666667v85.333334h85.333333z m465.066667 230.4L780.8 597.333333l-59.733333-59.733333L661.333333 597.333333l59.733334 59.733334z m-418.133334-422.4l59.733334-59.733334-59.733334-59.733333-59.733333 59.733333 59.733333 59.733334zM238.933333 593.066667L298.666667 652.8l59.733333-59.733333-55.466667-59.733334-64 59.733334z m422.4-418.133334l59.733334 59.733334 59.733333-59.733334-59.733333-59.733333-59.733334 59.733333zM512 170.666667c-119.466667 0-213.333333 93.866667-213.333333 213.333333s93.866667 213.333333 213.333333 213.333333 213.333333-93.866667 213.333333-213.333333-93.866667-213.333333-213.333333-213.333333z m0 85.333333c72.533333 0 128 55.466667 128 128s-55.466667 128-128 128-128-55.466667-128-128 55.466667-128 128-128z"  horiz-adv-x="1024" />

    
    <glyph glyph-name="zhuti_tiaosepan" unicode="&#60170;" d="M512 42.666667c-55.466667 0-21.333333 38.4-85.333333 102.4-59.733333 64-256 25.6-256 238.933333 0 187.733333 153.6 341.333333 341.333333 341.333333s341.333333-153.6 341.333333-341.333333-153.6-341.333333-341.333333-341.333333z m256 341.333333c0 140.8-115.2 256-256 256s-256-115.2-256-256c0-68.266667 21.333333-89.6 81.066667-110.933333 4.266667 0 12.8-4.266667 21.333333-4.266667 4.266667 0 17.066667-4.266667 21.333333-8.533333 55.466667-17.066667 81.066667-29.866667 106.666667-55.466667 21.333333-21.333333 34.133333-42.666667 46.933333-64 0-4.266667 4.266667-8.533333 4.266667-12.8 128 12.8 230.4 123.733333 230.4 256z m-128 85.333333c-25.6 0-42.666667 17.066667-42.666667 42.666667s17.066667 42.666667 42.666667 42.666667 42.666667-17.066667 42.666667-42.666667-17.066667-42.666667-42.666667-42.666667z m-119.466667 55.466667c-25.6 0-42.666667 17.066667-42.666666 42.666667s17.066667 42.666667 42.666666 42.666666 42.666667-17.066667 42.666667-42.666666-17.066667-42.666667-42.666667-42.666667z m183.466667-162.133333c-25.6 0-42.666667 17.066667-42.666667 42.666666s17.066667 42.666667 42.666667 42.666667 42.666667-17.066667 42.666667-42.666667-17.066667-42.666667-42.666667-42.666666zM392.533333 482.133333c-25.6 0-42.666667 17.066667-42.666666 42.666667s17.066667 42.666667 42.666666 42.666667 42.666667-17.066667 42.666667-42.666667-17.066667-42.666667-42.666667-42.666667z m196.266667-298.666666c-34.133333 0-64 29.866667-64 64s29.866667 64 64 64 64-29.866667 64-64c-4.266667-34.133333-29.866667-64-64-64z"  horiz-adv-x="1024" />

    
    <glyph glyph-name="mofabang" unicode="&#60171;" d="M520.533333 392.533333l51.2-89.6 76.8 68.266667 98.133334 21.333333-42.666667 93.866667 12.8 102.4-102.4-12.8-93.866667 42.666667-21.333333-98.133334-68.266667-76.8 89.6-51.2z m-98.133333-42.666666L298.666667 422.4l123.733333 136.533333 38.4 179.2 166.4-76.8L810.666667 682.666667l-21.333334-183.466667 76.8-166.4-179.2-38.4-136.533333-123.733333-68.266667 119.466666-256-256-59.733333 59.733334 256 256z"  horiz-adv-x="1024" />

    
    <glyph glyph-name="zuanshi" unicode="&#60172;" d="M580.266667 384h-132.266667l68.266667-157.866667 64 157.866667z m85.333333 0l-59.733333-128 132.266666 128h-72.533333z m-307.2 0H285.866667l132.266666-128-59.733333 128z m157.866667 213.333333h-12.8l-72.533334-128h157.866667l-72.533333 128z m85.333333 0l72.533333-128h85.333334l-81.066667 128h-76.8zM422.4 597.333333H345.6l-81.066667-128h85.333334l72.533333 128zM512 42.666667l-384 375.466666L298.666667 682.666667h426.666666l170.666667-264.533334-384-375.466666z"  horiz-adv-x="1024" />

    
    <glyph glyph-name="anniu_guanbi" unicode="&#60173;" d="M452.266667 384L362.666667 473.6l59.733333 59.733333 89.6-89.6 89.6 89.6 59.733333-59.733333-89.6-89.6 89.6-89.6-59.733333-59.733333-89.6 89.6-89.6-89.6-59.733333 59.733333 89.6 89.6z m59.733333-341.333333c-187.733333 0-341.333333 153.6-341.333333 341.333333s153.6 341.333333 341.333333 341.333333 341.333333-153.6 341.333333-341.333333-153.6-341.333333-341.333333-341.333333z m0 85.333333c140.8 0 256 115.2 256 256s-115.2 256-256 256-256-115.2-256-256 115.2-256 256-256z"  horiz-adv-x="1024" />

    
    <glyph glyph-name="anquan" unicode="&#60174;" d="M554.666667 298.666667v42.666666h256v85.333334c0 149.333333-110.933333 273.066667-256 294.4V768h-85.333334v-46.933333c-145.066667-21.333333-256-145.066667-256-294.4v-85.333334h256v-234.666666c0-59.733333 46.933333-106.666667 106.666667-106.666667s106.666667 46.933333 106.666667 106.666667v51.2-29.866667h-85.333334v-21.333333c0-12.8-8.533333-21.333333-21.333333-21.333334s-21.333333 8.533333-21.333333 21.333334V298.666667z m170.666666 128H298.666667c0 119.466667 93.866667 213.333333 213.333333 213.333333s213.333333-93.866667 213.333333-213.333333z"  horiz-adv-x="1024" />

    
    <glyph glyph-name="bangzhu" unicode="&#60175;" d="M473.6 435.2l-81.066667-25.6c-4.266667 12.8-8.533333 25.6-8.533333 38.4C384 507.733333 430.933333 554.666667 490.666667 554.666667h42.666666c59.733333 0 106.666667-46.933333 106.666667-106.666667 0-51.2-38.4-93.866667-85.333333-102.4v-4.266667h-85.333334v85.333334h64c12.8 0 21.333333 8.533333 21.333334 21.333333s-8.533333 21.333333-21.333334 21.333333h-42.666666c-12.8 0-21.333333-8.533333-21.333334-21.333333 0-4.266667 0-8.533333 4.266667-12.8zM512 42.666667c-187.733333 0-341.333333 153.6-341.333333 341.333333s153.6 341.333333 341.333333 341.333333 341.333333-153.6 341.333333-341.333333-153.6-341.333333-341.333333-341.333333z m0 85.333333c140.8 0 256 115.2 256 256s-115.2 256-256 256-256-115.2-256-256 115.2-256 256-256z m-42.666667 170.666667h85.333334v-85.333334h-85.333334v85.333334z"  horiz-adv-x="1024" />

    
    <glyph glyph-name="biaoge" unicode="&#60176;" d="M469.333333 597.333333v-85.333333h256V597.333333h-256zM384 597.333333H298.666667v-85.333333h85.333333V597.333333z m85.333333-426.666666h256v256h-256v-256z m-85.333333 0v256H298.666667v-256h85.333333zM213.333333 682.666667h597.333334v-597.333334H213.333333V682.666667z"  horiz-adv-x="1024" />

    
    <glyph glyph-name="anniu_xuanzhong" unicode="&#60177;" d="M486.4 371.2l149.333333 149.333333 59.733334-59.733333-209.066667-209.066667-140.8 140.8 59.733333 59.733334 81.066667-81.066667zM512 42.666667c-187.733333 0-341.333333 153.6-341.333333 341.333333s153.6 341.333333 341.333333 341.333333 341.333333-153.6 341.333333-341.333333-153.6-341.333333-341.333333-341.333333z m0 85.333333c140.8 0 256 115.2 256 256s-115.2 256-256 256-256-115.2-256-256 115.2-256 256-256z"  horiz-adv-x="1024" />

    
    </font>
</defs>
</svg>
